<?xml version="1.0" standalone="no"?>
<!DOCTYPE svg PUBLIC "-//W3C//DTD SVG 1.1//EN" "http://www.w3.org/Graphics/SVG/1.1/DTD/svg11.dtd" >
<svg>
<metadata>
Created by FontForge 20090914 at Fri Mar 20 18:36:57 2020
 By www-data
HTF Gotham    2003 The Hoefler Type Foundry, Inc. Info: www.typography.com
</metadata>
<defs>
<font id="GothamHTF-Black" horiz-adv-x="500" >
  <font-face 
    font-family="GothamHTF-Black"
    font-weight="900"
    font-stretch="normal"
    units-per-em="1000"
    panose-1="0 0 0 0 0 0 0 0 0 0"
    ascent="800"
    descent="-200"
    x-height="540.999"
    cap-height="700"
    bbox="-73 -173 1260 932"
    underline-thickness="20"
    underline-position="-113"
    unicode-range="U+000D-U+FB02"
  />
<missing-glyph 
 />
    <glyph glyph-name=".notdef" 
 />
    <glyph glyph-name="nonmarkingreturn" unicode="&#xd;" horiz-adv-x="250" 
 />
    <glyph glyph-name="space" unicode=" " horiz-adv-x="277" 
 />
    <glyph glyph-name="exclam" unicode="!" horiz-adv-x="324" 
d="M54 615v85h216v-85l-58 -387h-100zM63 170h198v-170h-198v170z" />
    <glyph glyph-name="quotedbl" unicode="&#x22;" horiz-adv-x="537" 
d="M313 700h204v-5l-127 -354h-100zM56 700h204v-5l-127 -354h-99z" />
    <glyph glyph-name="numbersign" unicode="#" horiz-adv-x="706" 
d="M107 135h-78v161h106l19 112h-92v161h120l22 131h145l-23 -131h127l22 131h145l-22 -131h78v-161h-106l-19 -112h92v-161h-119l-24 -135h-145l24 135h-127l-23 -135h-145zM409 292l20 120h-133l-21 -120h134z" />
    <glyph glyph-name="dollar" unicode="$" horiz-adv-x="666" 
d="M295 2c-49.333 5.33301 -97.168 16.3311 -143.501 32.998s-88.5 38.667 -126.5 66l90 133c32 -22.667 63.167 -40.667 93.5 -54s61.166 -22.666 92.499 -27.999v120c-40 9.33301 -75.167 20 -105.5 32s-55.666 26.5 -75.999 43.5s-35.666 37 -45.999 60
s-15.5 49.833 -15.5 80.5v2c0 59.333 20.667 108 62 146s100.333 59.667 177 65v57h104v-60c41.333 -4.66699 79.333 -13.667 114 -27s67 -30.333 97 -51l-82 -134c-20.667 14.667 -42.5 27 -65.5 37s-45.833 17.667 -68.5 23v-116
c40 -9.33301 74.833 -20.166 104.5 -32.499s54.5 -27 74.5 -44s35 -37 45 -60s15 -50.167 15 -81.5v-2c0 -30.667 -5.66699 -58.167 -17 -82.5s-27.333 -45.5 -48 -63.5s-45.5 -32.333 -74.5 -43s-61.167 -17.667 -96.5 -21v-98h-104v100zM301.998 554.998
c-24.667 -2 -42.167 -7.50195 -52.5 -16.502s-15.5 -20.167 -15.5 -33.5v-2c0 -13.333 4.5 -24.166 13.5 -32.499s27.167 -16.166 54.5 -23.499v108zM394.998 145.996c44.667 4.66699 67 21.667 67 51v2c0 13.333 -4.66699 24.333 -14 33s-27 16.667 -53 24v-110z" />
    <glyph glyph-name="percent" unicode="%" horiz-adv-x="899" 
d="M215 333c-26.667 0 -51.167 4.83301 -73.5 14.5s-41.333 23 -57 40s-27.834 36.833 -36.501 59.5s-13 47 -13 73v2c0 26 4.33301 50.333 13 73s20.834 42.5 36.501 59.5s34.667 30.5 57 40.5s47.166 15 74.499 15s52 -5 74 -15s40.833 -23.5 56.5 -40.5
s27.834 -36.833 36.501 -59.5s13 -46.667 13 -72v-2c0 -26 -4.33301 -50.333 -13 -73s-21 -42.5 -37 -59.5s-35 -30.5 -57 -40.5s-46.667 -15 -74 -15zM652 700h135l-540 -700h-135zM683 -10c-26.667 0 -51.167 5 -73.5 15s-41.333 23.5 -57 40.5
s-27.834 36.833 -36.501 59.5s-13 46.667 -13 72v2c0 26 4.33301 50.333 13 73s20.834 42.5 36.501 59.5s34.667 30.5 57 40.5s47.166 15 74.499 15s52 -4.83301 74 -14.5s40.833 -23 56.5 -40s27.834 -36.833 36.501 -59.5s13 -47 13 -73v-2
c0 -25.333 -4.33301 -49.5 -13 -72.5s-21 -43 -37 -60s-35 -30.5 -57 -40.5s-46.667 -15 -74 -15zM216 443c17.333 0 31.333 7.33398 42 22.001s16 33 16 55v2c0 22 -5.5 40.5 -16.5 55.5s-25.167 22.5 -42.5 22.5s-31.333 -7.33301 -42 -22s-16 -33 -16 -55v-2
c0 -22.667 5.66699 -41.334 17 -56.001s25.333 -22 42 -22zM684 100.001c17.333 0 31.333 7.33203 42 21.999s16 33 16 55v2c0 22.667 -5.5 41.334 -16.5 56.001s-25.167 22 -42.5 22c-18 0 -32.167 -7.16699 -42.5 -21.5s-15.5 -32.833 -15.5 -55.5v-2
c0 -22 5.66699 -40.5 17 -55.5s25.333 -22.5 42 -22.5z" />
    <glyph glyph-name="ampersand" unicode="&#x26;" horiz-adv-x="698" 
d="M479 59c-30 -22.667 -62.001 -40.168 -96.001 -52.501s-71.333 -18.5 -112 -18.5c-36 0 -69.167 4.5 -99.5 13.5s-56.666 22.167 -78.999 39.5s-39.833 38.5 -52.5 63.5s-19 53.5 -19 85.5v2c0 88 47.333 153.333 142 196c-16 23.333 -27.667 45.833 -35 67.5
s-11 43.834 -11 66.501v2c0 25.333 5 49.5 15 72.5s24.5 43.167 43.5 60.5s42.167 31.166 69.5 41.499s58 15.5 92 15.5c32 0 60.833 -4.66699 86.5 -14s47.5 -22 65.5 -38s31.833 -35 41.5 -57s14.5 -45.667 14.5 -71v-2c0 -43.333 -12.5 -79.666 -37.5 -108.999
s-58.167 -53.666 -99.5 -72.999l78 -76c11.333 16.667 22.5 34.334 33.5 53.001s21.833 38 32.5 58l128 -64c-14.667 -26.667 -29.5 -52.334 -44.5 -77.001s-30.833 -48.334 -47.5 -71.001l94 -93l-131 -94zM316.999 436.999c49.333 22 74 50.665 74 85.998v2
c0 17.333 -5 31 -15 41s-23 15 -39 15c-16.667 0 -30.167 -5.66699 -40.5 -17s-15.5 -26.333 -15.5 -45v-2c0 -13.333 3 -26.166 9 -38.499s15 -26.166 27 -41.499zM296.999 130.997c14 0 28 2.66895 42 8.00195s27.667 12.666 41 21.999l-115 117
c-17.333 -10.667 -30 -22.5 -38 -35.5s-12 -26.5 -12 -40.5v-2c0 -20.667 7.66699 -37.334 23 -50.001s35 -19 59 -19z" />
    <glyph glyph-name="quotesingle" unicode="'" horiz-adv-x="284" 
d="M56 700h208v-5l-127 -354h-103z" />
    <glyph glyph-name="parenleft" unicode="(" horiz-adv-x="445" 
d="M336 -141c-46.667 24.667 -88.167 51.3242 -124.5 79.9912s-66.833 60.334 -91.5 95.001s-43.5 72.834 -56.5 114.501s-19.5 87.834 -19.5 138.501s6.5 96.834 19.5 138.501s31.833 79.834 56.5 114.501s55.167 66.334 91.5 95.001s77.833 55.334 124.5 80.001l79 -118
c-64.667 -44.667 -111.667 -91.167 -141 -139.5s-44 -105.166 -44 -170.499s14.667 -122.166 44 -170.499s76.333 -94.833 141 -139.5z" />
    <glyph glyph-name="parenright" unicode=")" horiz-adv-x="445" 
d="M30 -23c64.667 44.667 111.667 91.1768 141 139.51s44 105.166 44 170.499s-14.667 122.166 -44 170.499s-76.333 94.833 -141 139.5l79 118c46.667 -24.667 88.167 -51.334 124.5 -80.001s66.833 -60.334 91.5 -95.001s43.5 -72.834 56.5 -114.501
s19.5 -87.834 19.5 -138.501s-6.5 -96.834 -19.5 -138.501s-31.833 -79.834 -56.5 -114.501s-55.167 -66.334 -91.5 -95.001s-77.833 -55.334 -124.5 -80.001z" />
    <glyph glyph-name="asterisk" unicode="*" horiz-adv-x="425" 
d="M185 471l-103 -88l-54 92l127 45l-127 45l54 93l103 -88l-25 132h105l-25 -132l103 88l54 -93l-127 -45l127 -45l-54 -92l-103 88l25 -132h-105z" />
    <glyph glyph-name="plus" unicode="+" horiz-adv-x="640" 
d="M233 268h-169v168h169v172h174v-172h169v-168h-169v-172h-174v172z" />
    <glyph glyph-name="comma" unicode="," horiz-adv-x="284" 
d="M20 -92c68.667 8 101.999 39.334 99.999 94.001h-77v195h198v-159c0 -37.333 -4.83301 -68.666 -14.5 -93.999s-23.5 -45.833 -41.5 -61.5s-39.667 -27.334 -65 -35.001s-53.666 -11.834 -84.999 -12.501z" />
    <glyph glyph-name="hyphen" unicode="-" horiz-adv-x="408" 
d="M40 396h328v-167h-328v167z" />
    <glyph glyph-name="period" unicode="." horiz-adv-x="284" 
d="M43 195h198v-195h-198v195z" />
    <glyph glyph-name="slash" unicode="/" horiz-adv-x="535" 
d="M405 798h154l-443 -926h-154z" />
    <glyph glyph-name="zero" unicode="0" horiz-adv-x="730" 
d="M364 -14c-50 0 -95 9.5 -135 28.5s-73.833 45 -101.5 78s-49 71.5 -64 115.5s-22.5 90.667 -22.5 140v2c0 49.333 7.66699 96.166 23 140.499s37 83 65 116s62 59.167 102 78.5s85 29 135 29s94.833 -9.5 134.5 -28.5s73.5 -45 101.5 -78s49.5 -71.5 64.5 -115.5
s22.5 -90.667 22.5 -140v-2c0 -49.333 -7.5 -96.166 -22.5 -140.499s-36.667 -83 -65 -116s-62.5 -59.167 -102.5 -78.5s-85 -29 -135 -29zM366 158c19.333 0 37 4.66699 53 14s29.5 22.5 40.5 39.5s19.5 37 25.5 60s9 48.5 9 76.5v2c0 28 -3.16699 53.667 -9.5 77
s-15.166 43.5 -26.499 60.5s-25 30.333 -41 40s-33.667 14.5 -53 14.5s-36.833 -4.66699 -52.5 -14s-29.167 -22.333 -40.5 -39s-20 -36.667 -26 -60s-9 -49 -9 -77v-2c0 -28 3.16699 -53.667 9.5 -77s15.166 -43.5 26.499 -60.5s25 -30.333 41 -40s33.667 -14.5 53 -14.5z
" />
    <glyph glyph-name="one" unicode="1" horiz-adv-x="422" 
d="M163 524l-118 -27l-37 150l205 58h141v-705h-191v524z" />
    <glyph glyph-name="two" unicode="2" horiz-adv-x="624" 
d="M33 146l261.997 199.996c32.667 25.333 55.834 47.333 69.501 66s20.5 38.667 20.5 60c0 22 -7.16699 39.333 -21.5 52s-33.166 19 -56.499 19s-45.333 -7 -66 -21s-45 -37 -73 -69l-131 109c18.667 24 37.667 45.333 57 64s40.166 34.334 62.499 47.001
s47 22.334 74 29.001s57.5 10 91.5 10c38 0 72.833 -5.5 104.5 -16.5s58.834 -26.167 81.501 -45.5s40.334 -42.666 53.001 -69.999s19 -57.666 19 -90.999v-2c0 -28 -3.5 -53 -10.5 -75s-17.5 -42.5 -31.5 -61.5s-31 -37.167 -51 -54.5s-43 -35.333 -69 -54l-120 -84h289
v-158h-554v146z" />
    <glyph glyph-name="three" unicode="3" horiz-adv-x="621" 
d="M316 -14c-68 0 -126.167 11.166 -174.5 33.499s-89.5 52.5 -123.5 90.5l122 122c25.333 -25.333 51.5 -45 78.5 -59s56.5 -21 88.5 -21c28 0 50 6.5 66 19.5s24 30.167 24 51.5v2c0 22.667 -9.83301 40.334 -29.5 53.001s-47.834 19 -84.501 19h-82l-28 101l161 145h-268
v157h506v-139l-167 -143c25.333 -5.33301 48.833 -13 70.5 -23s40.834 -23 57.501 -39s29.667 -35 39 -57s14 -48 14 -78v-2c0 -35.333 -6.66699 -67.333 -20 -96s-32 -53.167 -56 -73.5s-52.5 -36 -85.5 -47s-69.167 -16.5 -108.5 -16.5z" />
    <glyph glyph-name="four" unicode="4" horiz-adv-x="689" 
d="M384 136h-339l-32 137l363 432h196v-424h89v-145h-89v-136h-188v136zM384 280v201l-167 -201h167z" />
    <glyph glyph-name="five" unicode="5" horiz-adv-x="630" 
d="M303 -14c-62.667 0 -116.501 10 -161.501 30s-85.833 47 -122.5 81l111 130c28.667 -24 56.667 -42.667 84 -56s56 -20 86 -20c32 0 57.167 7.33301 75.5 22s27.5 34.667 27.5 60v2c0 25.333 -9.5 45.166 -28.5 59.499s-43.833 21.5 -74.5 21.5
c-21.333 0 -41.166 -3.33301 -59.499 -10s-35.833 -15 -52.5 -25l-115 64l20 355h468v-160h-315l-6 -106c16 7.33301 32.833 13.333 50.5 18s38.167 7 61.5 7c31.333 0 61.5 -4.5 90.5 -13.5s54.5 -22.5 76.5 -40.5s39.667 -41 53 -69s20 -61 20 -99v-2
c0 -38.667 -7 -73.5 -21 -104.5s-33.833 -57.167 -59.5 -78.5s-56.167 -37.666 -91.5 -48.999s-74.333 -17 -117 -17z" />
    <glyph glyph-name="six" unicode="6" horiz-adv-x="662" 
d="M341 -14c-50 0 -91.8359 7 -125.503 21s-63.167 33.667 -88.5 59c-26 26 -46.833 59.667 -62.5 101s-23.5 95 -23.5 161v2c0 54.667 6.66699 105.334 20 152.001s33.5 87.167 60.5 121.5s60.833 61.333 101.5 81s88.334 29.5 143.001 29.5c49.333 0 92 -6.5 128 -19.5
s71 -32.167 105 -57.5l-91 -137c-21.333 16 -42.833 28.833 -64.5 38.5s-46.5 14.5 -74.5 14.5c-41.333 0 -72.5 -13.833 -93.5 -41.5s-33.833 -63.5 -38.5 -107.5c18.667 14 39.834 26.5 63.501 37.5s52.834 16.5 87.501 16.5c30.667 0 60 -4.83301 88 -14.5
s52.5 -23.667 73.5 -42s37.833 -41 50.5 -68s19 -58.167 19 -93.5v-2c0 -39.333 -7.33301 -74.5 -22 -105.5s-34.5 -57.333 -59.5 -79s-54.5 -38.334 -88.5 -50.001s-70 -17.5 -108 -17.5zM332.997 137c30.667 0 54.5 8.66895 71.5 26.002s25.5 38.666 25.5 63.999v2
c0 25.333 -8.83301 46.666 -26.5 63.999s-41.834 26 -72.501 26s-54.5 -8.5 -71.5 -25.5s-25.5 -38.167 -25.5 -63.5v-2c0 -25.333 8.83301 -46.833 26.5 -64.5s41.834 -26.5 72.501 -26.5z" />
    <glyph glyph-name="seven" unicode="7" horiz-adv-x="614" 
d="M370 537h-324v163h539v-146l-309 -554h-214z" />
    <glyph glyph-name="eight" unicode="8" horiz-adv-x="630" 
d="M315 -12c-42 0 -80.668 4.99902 -116.001 14.999s-65.666 24 -90.999 42s-45.166 39.5 -59.499 64.5s-21.5 52.833 -21.5 83.5v2c0 42.667 10.5 77.334 31.5 104.001s50.5 48 88.5 64c-27.333 15.333 -50.166 35 -68.499 59s-27.5 55 -27.5 93v2
c0 28 6.33301 53.833 19 77.5s30.667 44.334 54 62.001s51.166 31.334 83.499 41.001s68.166 14.5 107.499 14.5s75.166 -4.83301 107.499 -14.5s60.166 -23.334 83.499 -41.001s41.333 -38.334 54 -62.001s19 -49.5 19 -77.5v-2c0 -38 -9.16699 -69 -27.5 -93
s-41.166 -43.667 -68.499 -59c35.333 -16.667 64.166 -37.834 86.499 -63.501s33.5 -60.167 33.5 -103.5v-2c0 -31.333 -7.16699 -59.666 -21.5 -84.999s-34.166 -47 -59.499 -65s-55.666 -31.833 -90.999 -41.5s-74 -14.5 -116 -14.5zM314.999 415.999
c26 0 46.833 7.16699 62.5 21.5s23.5 32.5 23.5 54.5v2c0 19.333 -7.66699 36.5 -23 51.5s-36.333 22.5 -63 22.5s-47.667 -7.33301 -63 -22s-23 -31.667 -23 -51v-2c0 -22 7.83301 -40.333 23.5 -55s36.5 -22 62.5 -22zM314.999 132.999c32.667 0 57.667 7.83301 75 23.5
s26 34.167 26 55.5v2c0 22.667 -9.33301 41 -28 55s-43 21 -73 21s-54.333 -7 -73 -21s-28 -32.333 -28 -55v-2c0 -21.333 8.66699 -39.833 26 -55.5s42.333 -23.5 75 -23.5z" />
    <glyph glyph-name="nine" unicode="9" horiz-adv-x="662" 
d="M297 -14c-52 0 -97.6689 7.49902 -137.002 22.499s-75 35.167 -107 60.5l91 134c24 -19.333 48 -33.5 72 -42.5s50 -13.5 78 -13.5c40 0 70.833 13 92.5 39s34.834 61.667 39.501 107c-18 -17.333 -39.333 -31.166 -64 -41.499s-52.667 -15.5 -84 -15.5
c-34 0 -65.333 5.16699 -94 15.5s-53.5 25 -74.5 44s-37.333 42.167 -49 69.5s-17.5 58 -17.5 92v2c0 38.667 7 73.667 21 105s33.5 58.166 58.5 80.499s54.5 39.5 88.5 51.5s71 18 111 18c51.333 0 93.333 -7 126 -21s62.334 -34.333 89.001 -61
c25.333 -25.333 45.666 -58.666 60.999 -99.999s23 -94.333 23 -159v-2c0 -57.333 -7 -109.666 -21 -156.999s-34.667 -87.833 -62 -121.5s-61.166 -59.834 -101.499 -78.501s-86.833 -28 -139.5 -28zM330.998 374.999c30.667 0 54.667 8.83301 72 26.5s26 39.167 26 64.5v2
c0 27.333 -9 50 -27 68s-42.333 27 -73 27s-54.667 -8.83301 -72 -26.5s-26 -40.167 -26 -67.5v-2c0 -26.667 9 -48.667 27 -66s42.333 -26 73 -26z" />
    <glyph glyph-name="colon" unicode=":" horiz-adv-x="294" 
d="M48 541h198v-195h-198v195zM48 195h198v-195h-198v195z" />
    <glyph glyph-name="semicolon" unicode=";" horiz-adv-x="294" 
d="M48 541h198v-195h-198v195zM25 -94c68.667 8 101.999 39.334 99.999 94.001h-77v195h198v-159c0 -37.333 -4.83301 -68.666 -14.5 -93.999s-23.5 -45.833 -41.5 -61.5s-39.667 -27.334 -65 -35.001s-53.666 -11.834 -84.999 -12.501z" />
    <glyph glyph-name="less" unicode="&#x3c;" horiz-adv-x="644" 
d="M65 263v177l497 198v-177l-327 -109l327 -109v-178z" />
    <glyph glyph-name="equal" unicode="=" horiz-adv-x="639" 
d="M74 570h491v-167h-491v167zM74 301h491v-167h-491v167z" />
    <glyph glyph-name="greater" unicode="&#x3e;" horiz-adv-x="644" 
d="M82 242l327 109l-327 109v178l497 -198v-177l-497 -198v177z" />
    <glyph glyph-name="question" unicode="?" horiz-adv-x="540" 
d="M166 395l7.99707 9.00098c58 5.33301 98.667 14.666 122 27.999s35 30.666 35 51.999v1c0 17.333 -6.5 30.833 -19.5 40.5s-31.5 14.5 -55.5 14.5c-23.333 0 -47.666 -5.66699 -72.999 -17s-49.666 -27.666 -72.999 -48.999l-100 132c30.667 30.667 67 55.834 109 75.501
s92 29.5 150 29.5c36.667 0 70.334 -4.83301 101.001 -14.5s57 -23.5 79 -41.5s39.167 -40 51.5 -66s18.5 -55.333 18.5 -88v-2c0 -31.333 -5 -58.5 -15 -81.5s-23.667 -42.667 -41 -59s-37.833 -29.833 -61.5 -40.5s-49.5 -19.334 -77.5 -26.001l-12 -64h-121z
M149.997 170.001h197v-170h-197v170z" />
    <glyph glyph-name="at" unicode="@" horiz-adv-x="965" 
d="M491 -162c-64.667 0 -124.172 11.3262 -178.505 33.9932s-101.333 53.834 -141 93.501s-70.667 86 -93 139s-33.5 109.833 -33.5 170.5c0 60 11.333 116.667 34 170s53.667 100 93 140s86.166 71.5 140.499 94.5s112.833 34.5 175.5 34.5c62 0 119.333 -10.667 172 -32
s98.167 -49.833 136.5 -85.5s68.333 -77 90 -124s32.5 -96.167 32.5 -147.5c0 -45.333 -6 -84.833 -18 -118.5s-27.833 -61.5 -47.5 -83.5s-42.334 -38.5 -68.001 -49.5s-52.167 -16.5 -79.5 -16.5c-42 0 -75.167 7.5 -99.5 22.5s-42.5 32.833 -54.5 53.5
c-19.333 -22 -40.833 -39.833 -64.5 -53.5s-51.167 -20.5 -82.5 -20.5c-26 0 -50.167 4.83301 -72.5 14.5s-41.666 23.167 -57.999 40.5s-29.166 38.333 -38.499 63s-14 52.334 -14 83.001c0 36 6 69.667 18 101s28 58.833 48 82.5s43.333 42.334 70 56.001s55 20.5 85 20.5
c32.667 0 59.834 -7.16699 81.501 -21.5s39.167 -31.833 52.5 -52.5l12 61l155 -24l-46 -258c-1.33301 -7.33301 -2.33301 -14.666 -3 -21.999s-1 -14.666 -1 -21.999c0 -16.667 5.66699 -30.667 17 -42s27.333 -17 48 -17c32.667 0 60.5 17.167 83.5 51.5
s34.5 84.833 34.5 151.5c0 46 -9.5 90.167 -28.5 132.5s-45.833 79.5 -80.5 111.5s-75.667 57.5 -123 76.5s-99.666 28.5 -156.999 28.5c-58 0 -111.667 -10.5 -161 -31.5s-91.666 -49.5 -126.999 -85.5s-63 -78.167 -83 -126.5s-30 -100.166 -30 -155.499
c0 -56 9.83301 -108.167 29.5 -156.5s47.334 -90.333 83.001 -126s78.334 -63.667 128.001 -84s104.167 -30.5 163.5 -30.5c50 0 93.833 5.66699 131.5 17s75.5 28 113.5 50l20 -32c-38.667 -23.333 -79.5 -41.666 -122.5 -54.999s-90.5 -20 -142.5 -20zM454.995 193.993
c13.333 0 25.833 2.99902 37.5 8.99902s21.834 14.167 30.501 24.5s15.5 22.5 20.5 36.5s7.5 29 7.5 45c0 23.333 -6.83301 41.833 -20.5 55.5s-31.167 20.5 -52.5 20.5c-13.333 0 -25.833 -3 -37.5 -9s-21.834 -14 -30.501 -24s-15.5 -21.833 -20.5 -35.5
s-7.5 -28.5 -7.5 -44.5c0 -25.333 6.83301 -44.666 20.5 -57.999s31.167 -20 52.5 -20z" />
    <glyph glyph-name="A" unicode="A" horiz-adv-x="795" 
d="M304 705h187l298 -705h-208l-51 125h-270l-50 -125h-204zM474 276l-78 199l-79 -199h157z" />
    <glyph glyph-name="B" unicode="B" horiz-adv-x="715" 
d="M62 700l358.999 0.000976562c44 0 81.667 -5.33301 113 -16s57.333 -26.334 78 -47.001c14 -14 25 -30.333 33 -49s12 -40 12 -64v-2c0 -40.667 -10.167 -73.5 -30.5 -98.5s-46.166 -44.167 -77.499 -57.5c42.667 -14 76.5 -34 101.5 -60s37.5 -63 37.5 -111v-2
c0 -60.667 -23.167 -108 -69.5 -142s-111.5 -51 -195.5 -51h-361v700zM372.999 421.001c30 0 52.833 5.00098 68.5 15.001s23.5 25.333 23.5 46v2c0 19.333 -7.33301 34.166 -22 44.499s-36.667 15.5 -66 15.5h-126v-123h122zM400.999 156.002c30 0 53 5.50098 69 16.501
s24 26.833 24 47.5v2c0 19.333 -7.66699 34.666 -23 45.999s-39.333 17 -72 17h-148v-129h150z" />
    <glyph glyph-name="C" unicode="C" horiz-adv-x="730" 
d="M399 -14c-50 0 -97.001 9.00391 -141.001 27.0039s-82.167 43.167 -114.5 75.5s-58 70.666 -77 114.999s-28.5 92.5 -28.5 144.5v2c0 51.333 9.33301 99 28 143s44.334 82.5 77.001 115.5s71.667 58.833 117 77.5s94.333 28 147 28c71.333 0 131 -13.5 179 -40.5
s87.333 -62.167 118 -105.5l-146 -113c-20 25.333 -42 45.333 -66 60s-53 22 -87 22c-24.667 0 -47.167 -4.83301 -67.5 -14.5s-37.833 -22.834 -52.5 -39.501s-26.167 -36.334 -34.5 -59.001s-12.5 -46.667 -12.5 -72v-2c0 -26 4.16699 -50.5 12.5 -73.5
s19.833 -42.833 34.5 -59.5s32.167 -29.834 52.5 -39.501s42.833 -14.5 67.5 -14.5c36.667 0 66.834 7.83301 90.501 23.5s46.167 36.167 67.5 61.5l146 -104c-16.667 -22.667 -34.834 -43.667 -54.501 -63s-42 -36 -67 -50s-53 -25 -84 -33s-65.833 -12 -104.5 -12z" />
    <glyph glyph-name="D" unicode="D" horiz-adv-x="765" 
d="M62 700h269.998c62.667 0 118.5 -8.5 167.5 -25.5s90.333 -40.833 124 -71.5s59.334 -67.167 77.001 -109.5s26.5 -88.833 26.5 -139.5v-2c0 -50.667 -9 -97.5 -27 -140.5s-44 -80.167 -78 -111.5s-75.667 -55.833 -125 -73.5s-105.666 -26.5 -168.999 -26.5h-266v700z
M334.998 172c58.667 0 105.5 15.3311 140.5 45.998s52.5 74.334 52.5 131.001v2c0 56.667 -17.5 100.334 -52.5 131.001s-81.833 46 -140.5 46h-79v-356h79z" />
    <glyph glyph-name="E" unicode="E" horiz-adv-x="667" 
d="M62 700h563v-165h-371v-106h336v-153h-336v-111h376v-165h-568v700z" />
    <glyph glyph-name="F" unicode="F" horiz-adv-x="648" 
d="M62 700h560v-170h-366v-119h331v-161h-331v-250h-194v700z" />
    <glyph glyph-name="G" unicode="G" horiz-adv-x="769" 
d="M419 -14c-54.667 0 -105.166 9.00098 -151.499 27.001s-86.5 43 -120.5 75s-60.667 70.167 -80 114.5s-29 92.833 -29 145.5v2c0 51.333 9.5 99 28.5 143s45.167 82.5 78.5 115.5s73.166 58.833 119.499 77.5s96.5 28 150.5 28c62 0 115.5 -9 160.5 -27
s86.167 -43 123.5 -75l-114 -137c-25.333 21.333 -51.166 37.666 -77.499 48.999s-56.833 17 -91.5 17c-25.333 0 -48.833 -5 -70.5 -15s-40.5 -23.667 -56.5 -41s-28.667 -37.666 -38 -60.999s-14 -48.333 -14 -75v-2c0 -28 4.66699 -54 14 -78s22.5 -44.5 39.5 -61.5
s37 -30.333 60 -40s48.5 -14.5 76.5 -14.5c45.333 0 82.666 9.66699 111.999 29v85h-138v142h322v-315c-37.333 -30.667 -81.333 -56.334 -132 -77.001s-108 -31 -172 -31z" />
    <glyph glyph-name="H" unicode="H" horiz-adv-x="761" 
d="M62 700h194v-262h249v262h194v-700h-194v266h-249v-266h-194v700z" />
    <glyph glyph-name="I" unicode="I" horiz-adv-x="327" 
d="M66 700h195v-700h-195v700z" />
    <glyph glyph-name="J" unicode="J" horiz-adv-x="564" 
d="M250 -12c-60.667 0 -110.669 11.333 -150.002 34s-71.333 50.667 -96 84l125 118c17.333 -20.667 34.5 -36.667 51.5 -48s36.167 -17 57.5 -17c24.667 0 44.167 8.16699 58.5 24.5s21.5 40.833 21.5 73.5v443h193v-444c0 -44 -5.66699 -82 -17 -114
s-28.666 -59.667 -51.999 -83s-51.166 -41 -83.499 -53s-68.5 -18 -108.5 -18z" />
    <glyph glyph-name="K" unicode="K" horiz-adv-x="730" 
d="M62 700h194v-284l241 284h230l-265 -301l274 -399h-233l-176 260l-71 -79v-181h-194v700z" />
    <glyph glyph-name="L" unicode="L" horiz-adv-x="616" 
d="M62 700h194v-530h339v-170h-533v700z" />
    <glyph glyph-name="M" unicode="M" horiz-adv-x="868" 
d="M62 700h205l167 -271l167 271h205v-700h-193v402l-179 -274h-4l-178 272v-400h-190v700z" />
    <glyph glyph-name="N" unicode="N" horiz-adv-x="785" 
d="M62 700h181l288 -370v370h192v-700h-170l-299 384v-384h-192v700z" />
    <glyph glyph-name="O" unicode="O" horiz-adv-x="831" 
d="M414 -14c-54 0 -104 9.5 -150 28.5s-85.667 44.833 -119 77.5s-59.5 71 -78.5 115s-28.5 91 -28.5 141v2c0 50 9.5 97.167 28.5 141.5s45.5 83 79.5 116s74 59 120 78s96 28.5 150 28.5s104 -9.5 150 -28.5s85.667 -44.833 119 -77.5s59.5 -71 78.5 -115
s28.5 -91 28.5 -141v-2c0 -50 -9.5 -97.167 -28.5 -141.5s-45.5 -83 -79.5 -116s-74 -59 -120 -78s-96 -28.5 -150 -28.5zM416 161c26.667 0 51 5 73 15s40.667 23.5 56 40.5s27.333 36.833 36 59.5s13 46.667 13 72v2c0 25.333 -4.33301 49.333 -13 72s-21 42.667 -37 60
s-35 31.166 -57 41.499s-46.333 15.5 -73 15.5s-50.834 -5 -72.501 -15s-40.167 -23.5 -55.5 -40.5s-27.333 -36.833 -36 -59.5s-13 -46.667 -13 -72v-2c0 -25.333 4.33301 -49.333 13 -72s20.834 -42.667 36.501 -60s34.5 -31.166 56.5 -41.499s46.333 -15.5 73 -15.5z" />
    <glyph glyph-name="P" unicode="P" horiz-adv-x="673" 
d="M62 700l300 -0.000976562c44 0 84 -5.5 120 -16.5s66.667 -27 92 -48s44.833 -46.833 58.5 -77.5s20.5 -65.334 20.5 -104.001v-2c0 -41.333 -7.5 -77.666 -22.5 -108.999s-35.833 -57.666 -62.5 -78.999s-58.5 -37.333 -95.5 -48s-77.167 -16 -120.5 -16h-96v-200h-194
v700zM348 351.999c34.667 0 61.833 8.16699 81.5 24.5s29.5 38.5 29.5 66.5v2c0 30 -9.83301 52.833 -29.5 68.5s-47.167 23.5 -82.5 23.5h-91v-185h92z" />
    <glyph glyph-name="Q" unicode="Q" horiz-adv-x="831" 
d="M627 48c-30 -19.333 -63 -34.5 -99 -45.5s-74 -16.5 -114 -16.5c-54 0 -104 9.5 -150 28.5s-85.667 44.833 -119 77.5s-59.5 71 -78.5 115s-28.5 91 -28.5 141v2c0 50 9.5 97.167 28.5 141.5s45.5 83 79.5 116s74 59 120 78s96 28.5 150 28.5s104 -9.5 150 -28.5
s85.667 -44.833 119 -77.5s59.5 -71 78.5 -115s28.5 -91 28.5 -141v-2c0 -37.333 -5.33301 -73 -16 -107s-26 -65.333 -46 -94l72 -61l-98 -109zM416 158c24.667 0 48.333 4.33398 71 13.001l-97 83l98 110l95 -86c8 21.333 12 44 12 68v2
c0 25.333 -4.33301 49.666 -13 72.999s-21 43.666 -37 60.999s-35 31.166 -57 41.499s-46.667 15.5 -74 15.5c-26.667 0 -50.834 -5.16699 -72.501 -15.5s-40.167 -24.166 -55.5 -41.499s-27.333 -37.333 -36 -60s-13 -46.667 -13 -72v-2c0 -25.333 4.33301 -49.5 13 -72.5
s20.834 -43.167 36.501 -60.5s34.5 -31.166 56.5 -41.499s46.333 -15.5 73 -15.5z" />
    <glyph glyph-name="R" unicode="R" horiz-adv-x="719" 
d="M62 700h331.001c54 0 99.667 -6.66699 137 -20s67.666 -32 90.999 -56c41.333 -40 62 -94.333 62 -163v-2c0 -54 -13 -98.667 -39 -134s-61 -62.333 -105 -81l167 -244h-224l-141 212h-2h-83v-212h-194v700zM384.001 364c33.333 0 59.001 7.5 77.001 22.5
s27 35.167 27 60.5v2c0 28 -9.33301 48.833 -28 62.5s-44.334 20.5 -77.001 20.5h-127v-168h128z" />
    <glyph glyph-name="S" unicode="S" horiz-adv-x="652" 
d="M337 -12c-62.667 0 -122.164 9.6748 -178.497 29.0078s-106.166 48.333 -149.499 87l108 129c70 -56 145.667 -84 227 -84c26 0 45.833 4.16699 59.5 12.5s20.5 20.166 20.5 35.499v2c0 7.33301 -1.66699 13.833 -5 19.5s-9.5 11.167 -18.5 16.5s-21 10.5 -36 15.5
s-34.5 10.167 -58.5 15.5c-37.333 8.66699 -72 18.167 -104 28.5s-59.833 23.666 -83.5 39.999s-42.334 36.666 -56.001 60.999s-20.5 54.5 -20.5 90.5v2c0 32.667 6.16699 62.667 18.5 90s30.333 51 54 71s52.167 35.5 85.5 46.5s71 16.5 113 16.5
c60 0 113.5 -7.83301 160.5 -23.5s89.5 -38.834 127.5 -69.501l-97 -137c-32 22.667 -64.833 39.834 -98.5 51.501s-66.167 17.5 -97.5 17.5c-23.333 0 -40.833 -4.33301 -52.5 -13s-17.5 -19.334 -17.5 -32.001v-2c0 -8 1.83301 -15 5.5 -21s10 -11.5 19 -16.5
s21.333 -10 37 -15s35.5 -10.167 59.5 -15.5c40 -8.66699 76.167 -18.834 108.5 -30.501s59.833 -25.834 82.5 -42.501s40 -36.834 52 -60.501s18 -51.834 18 -84.501v-2c0 -36 -6.83301 -68 -20.5 -96s-32.834 -51.833 -57.501 -71.5s-54.334 -34.667 -89.001 -45
s-73.334 -15.5 -116.001 -15.5z" />
    <glyph glyph-name="T" unicode="T" horiz-adv-x="660" 
d="M233 530h-210v170h614v-170h-210v-530h-194v530z" />
    <glyph glyph-name="U" unicode="U" horiz-adv-x="758" 
d="M377 -13c-50 0 -94.999 6.33789 -134.999 19.0049s-74 32.167 -102 58.5s-49.5 59.666 -64.5 99.999s-22.5 87.833 -22.5 142.5v393h197v-389c0 -50.667 11.667 -88.167 35 -112.5s54.666 -36.5 93.999 -36.5s70.666 11.667 93.999 35s35 59.666 35 108.999v394h197v-388
c0 -56.667 -7.83301 -105.334 -23.5 -146.001s-37.667 -74.334 -66 -101.001s-62.666 -46.334 -102.999 -59.001s-85.5 -19 -135.5 -19z" />
    <glyph glyph-name="V" unicode="V" horiz-adv-x="760" 
d="M6 700h217l159 -443l159 443h213l-284 -705h-180z" />
    <glyph glyph-name="W" unicode="W" horiz-adv-x="1117" 
d="M15 700h205l122 -405l135 407h167l135 -407l122 405h201l-234 -705h-169l-141 403l-140 -403h-169z" />
    <glyph glyph-name="X" unicode="X" horiz-adv-x="732" 
d="M251 356l-230 344h223l124 -197l125 197h218l-230 -342l240 -358h-223l-134 211l-135 -211h-218z" />
    <glyph glyph-name="Y" unicode="Y" horiz-adv-x="723" 
d="M264 262l-266 438h221l144 -255l145 255h217l-266 -435v-265h-195v262z" />
    <glyph glyph-name="Z" unicode="Z" horiz-adv-x="698" 
d="M40 141l351 395h-339v164h607v-141l-351 -395h351v-164h-619v141z" />
    <glyph glyph-name="bracketleft" unicode="[" horiz-adv-x="457" 
d="M66 700h346v-129h-176v-572h176v-129h-346v830z" />
    <glyph glyph-name="backslash" unicode="\" horiz-adv-x="535" 
d="M-24 798h154l443 -926h-154z" />
    <glyph glyph-name="bracketright" unicode="]" horiz-adv-x="457" 
d="M45 -1h176v572h-176v129h346v-830h-346v129z" />
    <glyph glyph-name="asciicircum" unicode="^" 
d="M186 699h128l144 -206h-133l-76 97l-76 -97h-131z" />
    <glyph glyph-name="underscore" unicode="_" horiz-adv-x="600" 
d="M-2 -44h604v-116h-604v116z" />
    <glyph glyph-name="grave" unicode="`" 
d="M88 715l177 57l104 -185h-134z" />
    <glyph glyph-name="a" unicode="a" horiz-adv-x="599" 
d="M206 -12c-26 0 -50 3.66309 -72 10.9961s-41.167 18 -57.5 32s-29.166 31.5 -38.499 52.5s-14 44.833 -14 71.5v2c0 56 19.5 98.333 58.5 127s90.167 43 153.5 43c25.333 0 49.5 -2.16699 72.5 -6.5s42.167 -9.16602 57.5 -14.499v9c0 28 -8.83301 49.667 -26.5 65
s-44.834 23 -81.501 23c-28.667 0 -54.667 -2.66699 -78 -8s-47 -12.666 -71 -21.999l-39 134c30.667 12.667 63.167 22.834 97.5 30.501s74.833 11.5 121.5 11.5c48.667 0 89.834 -5.66699 123.501 -17s61.167 -27.666 82.5 -48.999c20.667 -20 35.5 -44.167 44.5 -72.5
s13.5 -61.5 13.5 -99.5v-311h-188v56c-18.667 -20.667 -40.834 -37.167 -66.501 -49.5s-56.5 -18.5 -92.5 -18.5zM274 106.996c28 0 50.667 8 68 24s26 37.667 26 65v25c-9.33301 4 -20.5 7.33301 -33.5 10s-26.5 4 -40.5 4c-28 0 -49.5 -6.16699 -64.5 -18.5
s-22.5 -28.5 -22.5 -48.5v-2c0 -18.667 6.33301 -33.167 19 -43.5s28.667 -15.5 48 -15.5z" />
    <glyph glyph-name="b" unicode="b" horiz-adv-x="676" 
d="M406 -12c-41.333 0 -74.833 7.83105 -100.5 23.498s-47.167 33.834 -64.5 54.501v-66h-190v730h190v-261c18.667 22.667 40.5 42.334 65.5 59.001s57.833 25 98.5 25c32 0 62.5 -6.5 91.5 -19.5s54.5 -31.5 76.5 -55.5s39.5 -53.333 52.5 -88s19.5 -73.667 19.5 -117v-2
c0 -44 -6.5 -83.5 -19.5 -118.5s-30.333 -64.667 -52 -89s-47 -43 -76 -56s-59.5 -19.5 -91.5 -19.5zM347 146.998c31.333 0 57.665 11.332 78.998 33.999s32 52.334 32 89.001v2c0 36 -10.667 65.333 -32 88s-47.666 34 -78.999 34c-15.333 0 -29.666 -3 -42.999 -9
s-25 -14.5 -35 -25.5s-17.833 -23.833 -23.5 -38.5s-8.5 -31 -8.5 -49v-2c0 -36 10.667 -65.5 32 -88.5s47.333 -34.5 78 -34.5z" />
    <glyph glyph-name="c" unicode="c" horiz-adv-x="569" 
d="M312 -13c-40.667 0 -78.3369 7.5 -113.004 22.5s-64.5 35.167 -89.5 60.5s-44.667 55.166 -59 89.499s-21.5 70.5 -21.5 108.5v2c0 38 7.16699 74.167 21.5 108.5s34.166 64.333 59.499 90s55.833 46 91.5 61s74.834 22.5 117.501 22.5c56 0 102.667 -11 140 -33
s67.666 -51.333 90.999 -88l-129 -96c-13.333 18 -27.666 32 -42.999 42s-34.666 15 -57.999 15c-15.333 0 -29.5 -3.16699 -42.5 -9.5s-24.167 -15 -33.5 -26s-16.666 -23.667 -21.999 -38s-8 -29.833 -8 -46.5v-2c0 -35.333 10 -64.666 30 -87.999s46 -35 78 -35
c22.667 0 41.834 5 57.501 15s31.167 23.667 46.5 41l127 -92c-24.667 -36.667 -56.167 -66.5 -94.5 -89.5s-87.166 -34.5 -146.499 -34.5z" />
    <glyph glyph-name="d" unicode="d" horiz-adv-x="676" 
d="M270 -12c-32 0 -62.5 6.50195 -91.5 19.502s-54.333 31.5 -76 55.5s-39 53.333 -52 88s-19.5 73.667 -19.5 117v2c0 44 6.33301 83.5 19 118.5s30 64.667 52 89s47.333 43 76 56s59 19.5 91 19.5c41.333 0 74.833 -7.83301 100.5 -23.5s47.5 -33.834 65.5 -54.501v255
h190v-730h-190v72c-18.667 -22.667 -40.667 -42.334 -66 -59.001s-58.333 -25 -99 -25zM328 147.002c30.667 0 56.666 11.5 77.999 34.5s32 52.5 32 88.5v2c0 18 -2.83301 34.333 -8.5 49s-13.5 27.5 -23.5 38.5s-21.667 19.5 -35 25.5s-27.666 9 -42.999 9
s-29.666 -3 -42.999 -9s-25 -14.333 -35 -25s-18 -23.5 -24 -38.5s-9 -31.5 -9 -49.5v-2c0 -18 3 -34.5 9 -49.5s14 -28 24 -39s21.667 -19.5 35 -25.5s27.666 -9 42.999 -9z" />
    <glyph glyph-name="e" unicode="e" horiz-adv-x="605" 
d="M319 -13c-42.667 0 -81.6631 6.83398 -116.996 20.501s-65.833 32.667 -91.5 57s-45.667 53.833 -60 88.5s-21.5 73 -21.5 115v2c0 39.333 6.66699 76.333 20 111s32.166 64.667 56.499 90s53.166 45.333 86.499 60s70 22 110 22c46.667 0 87.167 -8 121.5 -24
s62.666 -37.5 84.999 -64.5s39 -58.333 50 -94s16.5 -73.5 16.5 -113.5v-19c0 -6.66699 -0.333008 -13.334 -1 -20.001h-362c7.33301 -30 21.166 -52.333 41.499 -67s45.5 -22 75.5 -22c22.667 0 43.5 4.33301 62.5 13s38.167 22.667 57.5 42l105 -87
c-26 -33.333 -58.167 -60 -96.5 -80s-84.5 -30 -138.5 -30zM397.004 315.001c-3.33301 30 -13.333 53.833 -30 71.5s-38 26.5 -64 26.5c-25.333 0 -46 -8.83301 -62 -26.5s-26.667 -41.5 -32 -71.5h188z" />
    <glyph glyph-name="f" unicode="f" horiz-adv-x="404" 
d="M85 389h-63.0029v149h63v12c0 62.667 15.333 109.334 46 140.001c16.667 16.667 36.334 28.667 59.001 36s50 11 82 11c29.333 0 53.5 -1.33301 72.5 -4s36.167 -6.33398 51.5 -11.001v-134c-11.333 3.33301 -22.666 6 -33.999 8s-23.666 3 -36.999 3
c-36 0 -54 -17 -54 -51v-13h124v-146h-121v-389h-189v389z" />
    <glyph glyph-name="g" unicode="g" horiz-adv-x="676" 
d="M317 -162c-52.667 0 -101.163 5.33105 -145.496 15.998s-86.166 26 -125.499 46l61 126c29.333 -16 59 -28.5 89 -37.5s63.333 -13.5 100 -13.5c48 0 83.667 11.333 107 34s35 55.667 35 99v21c-19.333 -22 -42 -41 -68 -57s-59 -24 -99 -24
c-33.333 0 -64.5 5.83301 -93.5 17.5s-54.333 28.334 -76 50.001s-38.834 48 -51.501 79s-19 65.833 -19 104.5v2c0 39.333 6.33301 74.5 19 105.5s29.667 57.333 51 79s46.166 38.334 74.499 50.001s58.166 17.5 89.499 17.5c40.667 0 74 -7.33301 100 -22
s49.333 -32.667 70 -54v64h190v-411c0 -50 -5.66699 -92.5 -17 -127.5s-29 -64.5 -53 -88.5c-24.667 -24.667 -56.334 -43.5 -95.001 -56.5s-86.334 -19.5 -143.001 -19.5zM328.004 193.998c32 0 58.333 10 79 30s31 45 31 75v2c0 30 -10.333 54.833 -31 74.5
s-47 29.5 -79 29.5c-32.667 0 -59.334 -10 -80.001 -30s-31 -45 -31 -75v-2c0 -30 10.333 -54.833 31 -74.5s47.334 -29.5 80.001 -29.5z" />
    <glyph glyph-name="h" unicode="h" horiz-adv-x="634" 
d="M51 730h190v-263c17.333 22.667 39 42.667 65 60s58.333 26 97 26c58 0 103.167 -17.667 135.5 -53s48.5 -84 48.5 -146v-354h-190v293c0 30 -7 52.667 -21 68s-32.333 23 -55 23c-23.333 0 -42.5 -7.66699 -57.5 -23s-22.5 -38 -22.5 -68v-293h-190v730z" />
    <glyph glyph-name="i" unicode="i" horiz-adv-x="300" 
d="M51 730h198v-140h-198v140zM55 541h190v-541h-190v541z" />
    <glyph glyph-name="j" unicode="j" horiz-adv-x="302" 
d="M51 730h198v-140h-198v140zM52 -163c-15.333 0 -29.333 0.833984 -42 2.50098s-24.667 3.16699 -36 4.5v126c4 -0.666992 8.16699 -1 12.5 -1h12.5c18.667 0 32.667 4.66699 42 14s14 25.666 14 48.999v509h190v-517c0 -68.667 -16.833 -117 -50.5 -145
s-81.167 -42 -142.5 -42z" />
    <glyph glyph-name="k" unicode="k" horiz-adv-x="603" 
d="M51 730h190v-370l147 181h215l-188 -217l193 -324h-209l-109 184l-49 -57v-127h-190v730z" />
    <glyph glyph-name="l" unicode="l" horiz-adv-x="300" 
d="M55 730h190v-730h-190v730z" />
    <glyph glyph-name="m" unicode="m" horiz-adv-x="971" 
d="M51 541l190 -0.000976562v-74c17.333 22.667 39 42.667 65 60s58 26 96 26c36 0 67.333 -7.66699 94 -23s47.334 -37 62.001 -65c23.333 27.333 49.333 48.833 78 64.5s63 23.5 103 23.5c58 0 103.333 -17.167 136 -51.5s49 -83.166 49 -146.499v-355h-190v294
c0 30 -6.66699 52.5 -20 67.5s-31.333 22.5 -54 22.5s-41.334 -7.5 -56.001 -22.5s-22 -37.5 -22 -67.5v-294h-190v294c0 30 -6.66699 52.5 -20 67.5s-31.333 22.5 -54 22.5s-41.167 -7.5 -55.5 -22.5s-21.5 -37.5 -21.5 -67.5v-294h-190v541z" />
    <glyph glyph-name="n" unicode="n" horiz-adv-x="634" 
d="M51 541h190v-76c17.333 22.667 39 43 65 61s58.333 27 97 27c58 0 103.167 -17.667 135.5 -53s48.5 -84 48.5 -146v-354h-190v293c0 30 -7 52.667 -21 68s-32.333 23 -55 23c-23.333 0 -42.5 -7.66699 -57.5 -23s-22.5 -38 -22.5 -68v-293h-190v541z" />
    <glyph glyph-name="o" unicode="o" horiz-adv-x="656" 
d="M327 -13c-43.333 0 -83.166 7.50098 -119.499 22.501s-67.833 35.167 -94.5 60.5s-47.334 55 -62.001 89s-22 70.333 -22 109v2c0 38.667 7.5 75.167 22.5 109.5s35.833 64.333 62.5 90s58.334 46 95.001 61s76.667 22.5 120 22.5s83.166 -7.33301 119.499 -22
s67.833 -34.834 94.5 -60.501s47.334 -55.5 62.001 -89.5s22 -70.333 22 -109v-2c0 -38.667 -7.5 -75.167 -22.5 -109.5s-35.833 -64.333 -62.5 -90s-58.334 -46 -95.001 -61s-76.667 -22.5 -120 -22.5zM329 148.001c17.333 0 33 3.16699 47 9.5s25.833 15 35.5 26
s17.167 23.833 22.5 38.5s8 30 8 46v2c0 16.667 -2.83301 32.334 -8.5 47.001s-13.667 27.5 -24 38.5s-22.5 19.833 -36.5 26.5s-29.333 10 -46 10c-17.333 0 -33 -3.16699 -47 -9.5s-25.833 -15 -35.5 -26s-17.167 -23.833 -22.5 -38.5s-8 -30 -8 -46v-2
c0 -16.667 2.83301 -32.334 8.5 -47.001s13.667 -27.5 24 -38.5s22.5 -19.833 36.5 -26.5s29.333 -10 46 -10z" />
    <glyph glyph-name="p" unicode="p" horiz-adv-x="676" 
d="M51 541l190 -0.00195312v-72c18.667 22.667 40.5 42.334 65.5 59.001s57.833 25 98.5 25c32 0 62.5 -6.5 91.5 -19.5s54.5 -31.5 76.5 -55.5s39.5 -53.333 52.5 -88s19.5 -73.667 19.5 -117v-2c0 -44 -6.5 -83.5 -19.5 -118.5s-30.333 -64.667 -52 -89s-47 -43 -76 -56
s-59.5 -19.5 -91.5 -19.5c-41.333 0 -74.833 7.83301 -100.5 23.5s-47.167 33.834 -64.5 54.501v-226h-190v701zM347 146.998c31.333 0 57.665 11.332 78.998 33.999s32 52.334 32 89.001v2c0 36 -10.667 65.333 -32 88s-47.666 34 -78.999 34
c-15.333 0 -29.666 -3 -42.999 -9s-25 -14.5 -35 -25.5s-17.833 -23.833 -23.5 -38.5s-8.5 -31 -8.5 -49v-2c0 -36 10.667 -65.5 32 -88.5s47.333 -34.5 78 -34.5z" />
    <glyph glyph-name="q" unicode="q" horiz-adv-x="676" 
d="M435 72c-18.667 -22.667 -40.667 -42.332 -66 -58.999s-58.333 -25 -99 -25c-32 0 -62.5 6.5 -91.5 19.5s-54.333 31.5 -76 55.5s-39 53.333 -52 88s-19.5 73.667 -19.5 117v2c0 44 6.33301 83.5 19 118.5s30 64.667 52 89s47.333 43 76 56s59 19.5 91 19.5
c41.333 0 74.833 -7.83301 100.5 -23.5s47.5 -33.834 65.5 -54.501v66h190v-701h-190v232zM328 147.002c30.667 0 56.666 11.5 77.999 34.5s32 52.5 32 88.5v2c0 18 -2.83301 34.333 -8.5 49s-13.5 27.5 -23.5 38.5s-21.667 19.5 -35 25.5s-27.666 9 -42.999 9
s-29.666 -3 -42.999 -9s-25 -14.333 -35 -25s-18 -23.5 -24 -38.5s-9 -31.5 -9 -49.5v-2c0 -18 3 -34.5 9 -49.5s14 -28 24 -39s21.667 -19.5 35 -25.5s27.666 -9 42.999 -9z" />
    <glyph glyph-name="r" unicode="r" horiz-adv-x="428" 
d="M51 541h190v-109c15.333 37.333 36.333 66.833 63 88.5s62.667 31.5 108 29.5v-200h-16c-50 0 -88.333 -14.667 -115 -44s-40 -75.333 -40 -138v-168h-190v541z" />
    <glyph glyph-name="s" unicode="s" horiz-adv-x="514" 
d="M266 -12c-46 0 -90.6631 6.49902 -133.996 19.499s-84 33.167 -122 60.5l71 115c31.333 -20.667 63.166 -36.167 95.499 -46.5s62.5 -15.5 90.5 -15.5c32 0 48 9.66699 48 29v2c0 10.667 -7.33301 19 -22 25s-36.334 13 -65.001 21
c-26.667 7.33301 -51.667 15.333 -75 24s-43.666 19.5 -60.999 32.5s-31 28.833 -41 47.5s-15 41.667 -15 69v2c0 28.667 5.5 54.167 16.5 76.5s26.167 41 45.5 56s42.166 26.5 68.499 34.5s55.166 12 86.499 12c40 0 79.333 -5.5 118 -16.5s73.667 -26.5 105 -46.5
l-65 -120c-28 15.333 -56.333 27.5 -85 36.5s-53.667 13.5 -75 13.5c-14.667 0 -25.667 -2.5 -33 -7.5s-11 -11.167 -11 -18.5v-2c0 -10.667 7.5 -19.167 22.5 -25.5s36.833 -13.833 65.5 -22.5c26.667 -7.33301 51.667 -15.5 75 -24.5s43.666 -20 60.999 -33
s31 -28.833 41 -47.5s15 -41 15 -67v-2c0 -30 -5.33301 -56.167 -16 -78.5s-25.667 -41.166 -45 -56.499s-42.5 -26.833 -69.5 -34.5s-57.167 -11.5 -90.5 -11.5z" />
    <glyph glyph-name="t" unicode="t" horiz-adv-x="431" 
d="M266 -11c-56.667 0 -101.167 13.667 -133.5 41s-48.5 73.333 -48.5 138v220h-64v153h64v137h190v-137h126v-153h-126v-183c0 -19.333 4.33301 -33.166 13 -41.499s21.667 -12.5 39 -12.5c12.667 0 25 1.66699 37 5s23.667 7.66602 35 12.999v-149
c-17.333 -9.33301 -37 -16.833 -59 -22.5s-46.333 -8.5 -73 -8.5z" />
    <glyph glyph-name="u" unicode="u" horiz-adv-x="634" 
d="M231 -12c-58 0 -103.167 17.667 -135.5 53s-48.5 84 -48.5 146v354h190v-293c0 -30 7 -52.667 21 -68s32.667 -23 56 -23c22.667 0 41.5 7.66699 56.5 23s22.5 38 22.5 68v293h190v-541h-190v74c-17.333 -22.667 -39 -42.667 -65 -60s-58.333 -26 -97 -26z" />
    <glyph glyph-name="v" unicode="v" horiz-adv-x="625" 
d="M10 541h200l104 -316l104 316h197l-216 -545h-173z" />
    <glyph glyph-name="w" unicode="w" horiz-adv-x="861" 
d="M12 541h186l71 -272l83 274h157l84 -276l73 274h183l-167 -545h-164l-88 281l-90 -281h-163z" />
    <glyph glyph-name="x" unicode="x" horiz-adv-x="589" 
d="M190 273l-179 268h205l80 -133l80 133h201l-178 -267l182 -274h-204l-84 139l-85 -139h-200z" />
    <glyph glyph-name="y" unicode="y" horiz-adv-x="626" 
d="M211 -163c-34 0 -65.1699 4.33203 -93.5029 12.999s-55.166 20 -80.499 34l59 133c15.333 -9.33301 30.333 -16.5 45 -21.5s27.334 -7.5 38.001 -7.5c9.33301 0 17.5 1.5 24.5 4.5s13.5 8.83301 19.5 17.5l-212 531h199l108 -326l102 326h195l-198 -528
c-12 -31.333 -24.333 -58.166 -37 -80.499s-27 -40.5 -43 -54.5s-34.167 -24.333 -54.5 -31s-44.166 -10 -71.499 -10z" />
    <glyph glyph-name="z" unicode="z" horiz-adv-x="563" 
d="M32 125l250 265h-241v151h493v-125l-251 -265h251v-151h-502v125z" />
    <glyph glyph-name="braceleft" unicode="{" horiz-adv-x="490" 
d="M429 -141c-50 6 -91.833 14.3428 -125.5 25.0098s-60.834 23.834 -81.501 39.501s-35.334 34.167 -44.001 55.5s-13 45.666 -13 72.999c0 4 0.166992 9.16699 0.5 15.5s0.666016 13.166 0.999023 20.499l1 21.5c0.333008 7 0.5 12.5 0.5 16.5
c0 38 -9.83301 63.833 -29.5 77.5s-49.167 20.5 -88.5 20.5h-16v126h16c39.333 0 68.833 6.83301 88.5 20.5s29.5 39.5 29.5 77.5c0 4 -0.166992 9.5 -0.5 16.5l-1 21.5c-0.333008 7.33301 -0.666016 14.166 -0.999023 20.499s-0.5 11.5 -0.5 15.5
c0 27.333 4.33301 51.666 13 72.999s23.334 39.833 44.001 55.5s47.834 28.834 81.501 39.501s75.5 19 125.5 25l29 -111c-26.667 -6 -48.167 -12.333 -64.5 -19s-28.833 -14.334 -37.5 -23.001s-14.5 -18.834 -17.5 -30.501s-4.5 -25.167 -4.5 -40.5
c0 -8.66699 0.5 -19.834 1.5 -33.501s1.5 -25.834 1.5 -36.501c0 -36.667 -9.5 -65.667 -28.5 -87s-46.833 -37 -83.5 -47c36.667 -10 64.5 -25.667 83.5 -47s28.5 -50.333 28.5 -87c0 -10.667 -0.5 -22.834 -1.5 -36.501s-1.5 -24.834 -1.5 -33.501
c0 -15.333 1.5 -28.833 4.5 -40.5s8.83301 -21.834 17.5 -30.501s21.167 -16.334 37.5 -23.001s37.833 -13 64.5 -19z" />
    <glyph glyph-name="bar" unicode="|" horiz-adv-x="355" 
d="M105 798h145v-926h-145v926z" />
    <glyph glyph-name="braceright" unicode="}" horiz-adv-x="490" 
d="M32 -30c26.667 6 48.167 12.3232 64.5 18.9902s28.833 14.334 37.5 23.001s14.5 18.834 17.5 30.501s4.5 25.167 4.5 40.5c0 8.66699 -0.5 19.834 -1.5 33.501s-1.5 25.834 -1.5 36.501c0 36.667 9.5 65.667 28.5 87s46.833 37 83.5 47c-36.667 10 -64.5 25.667 -83.5 47
s-28.5 50.333 -28.5 87c0 10.667 0.5 22.834 1.5 36.501s1.5 24.834 1.5 33.501c0 15.333 -1.5 28.833 -4.5 40.5s-8.83301 21.834 -17.5 30.501s-21.167 16.334 -37.5 23.001s-37.833 13 -64.5 19l29 111c50 -6 91.833 -14.333 125.5 -25s60.834 -23.834 81.501 -39.501
s35.334 -34.167 44.001 -55.5s13 -45.666 13 -72.999c0 -4 -0.166992 -9.16699 -0.5 -15.5s-0.666016 -13.166 -0.999023 -20.499l-1 -21.5c-0.333008 -7 -0.5 -12.5 -0.5 -16.5c0 -38 9.83301 -63.833 29.5 -77.5s49.167 -20.5 88.5 -20.5h16v-126h-16
c-39.333 0 -68.833 -6.83301 -88.5 -20.5s-29.5 -39.5 -29.5 -77.5c0 -4 0.166992 -9.5 0.5 -16.5l1 -21.5c0.333008 -7.33301 0.666016 -14.166 0.999023 -20.499s0.5 -11.5 0.5 -15.5c0 -27.333 -4.33301 -51.666 -13 -72.999s-23.334 -39.833 -44.001 -55.5
s-47.834 -28.834 -81.501 -39.501s-75.5 -19 -125.5 -25z" />
    <glyph glyph-name="asciitilde" unicode="~" horiz-adv-x="505" 
d="M41 245c11.333 50 26.332 87.333 44.999 112s45 37 79 37c15.333 0 30.5 -2 45.5 -6s29.333 -8.5 43 -13.5l38 -13.5c11.667 -4 21.5 -6 29.5 -6c14 0 24.333 3.83301 31 11.5s13.334 19.167 20.001 34.5l92 -25c-11.333 -50 -26.333 -87.333 -45 -112s-45 -37 -79 -37
c-14.667 0 -29.667 2 -45 6s-29.833 8.5 -43.5 13.5l-38.5 13.5c-12 4 -22 6 -30 6c-14 0 -24.167 -3.83301 -30.5 -11.5s-12.833 -19.167 -19.5 -34.5z" />
    <glyph glyph-name="nonbreakingspace" unicode="&#xa0;" horiz-adv-x="277" 
 />
    <glyph glyph-name="exclamdown" unicode="&#xa1;" horiz-adv-x="324" 
d="M63 700h198v-170h-198v170zM54 85l58 387h100l58 -387v-85h-216v85z" />
    <glyph glyph-name="cent" unicode="&#xa2;" horiz-adv-x="575" 
d="M219 92c-28 9.33301 -53.333 22.4971 -76 39.4971s-42.334 36.833 -59.001 59.5s-29.5 47.834 -38.5 75.501s-13.5 56.5 -13.5 86.5v2c0 39.333 6.83301 75.833 20.5 109.5s33 63 58 88s54.833 45 89.5 60s73.334 22.833 116.001 23.5l12 70h115l-15 -87
c28.667 -10.667 53.5 -24.5 74.5 -41.5s38.167 -35.5 51.5 -55.5l-116 -89c-6.66699 8 -13.834 15.333 -21.501 22s-16.167 12.667 -25.5 18l-46 -252c18.667 2.66699 35.834 9 51.501 19s30.167 22.667 43.5 38l115 -84c-24 -35.333 -54.333 -63.666 -91 -84.999
s-81 -32.666 -133 -33.999l-14 -81h-115zM298 490.997c-15.333 -2 -29.167 -7.16699 -41.5 -15.5s-23 -18.5 -32 -30.5s-15.833 -25.5 -20.5 -40.5s-7 -30.833 -7 -47.5v-2c0 -26.667 4.83301 -50 14.5 -70s23.5 -35.667 41.5 -47z" />
    <glyph glyph-name="sterling" unicode="&#xa3;" horiz-adv-x="639" 
d="M44 115l74.999 29v119h-75v136h75v51c0 40 5.83301 76.5 17.5 109.5s28.834 60.833 51.501 83.5c46 46 109.667 69 191 69c54.667 0 100.667 -9.5 138 -28.5s69 -43.167 95 -72.5l-118 -129c-15.333 18 -31 32 -47 42s-34.333 15 -55 15
c-25.333 0 -45 -7.83301 -59 -23.5s-21 -37.5 -21 -65.5v-51h216v-136h-216v-110h293v-153h-561v115z" />
    <glyph glyph-name="currency" unicode="&#xa4;" horiz-adv-x="682" 
d="M421 -14c-40.667 0 -77.668 5.83203 -111.001 17.499s-62.833 27.834 -88.5 48.501s-47.167 45.667 -64.5 75s-30.333 61.333 -39 96h-81v104h68c-0.666992 3.33301 -1 6.83301 -1 10.5v10.5v2v13.5c0 4.33301 0.333008 8.83301 1 13.5h-68v104h84
c8.66699 32.667 21.667 63.167 39 91.5s38.833 53 64.5 74s55 37.5 88 49.5s69.5 18 109.5 18c54.667 0 101.667 -10.333 141 -31s72.333 -48 99 -82l-123 -115c-14.667 18.667 -31.167 33.667 -49.5 45s-40.5 17 -66.5 17c-25.333 0 -47.166 -6.16699 -65.499 -18.5
s-32.833 -29.5 -43.5 -51.5h156v-101h-178c-0.666992 -4 -1 -8.16699 -1 -12.5v-12.5v-2v-11.5c0 -3.66699 0.333008 -7.5 1 -11.5h178v-101h-158c11.333 -23.333 26.333 -41.5 45 -54.5s42 -19.5 70 -19.5c25.333 0 47.166 6 65.499 18s35.833 28 52.5 48l120 -113
c-28.667 -37.333 -62.667 -66.5 -102 -87.5s-86.666 -31.5 -141.999 -31.5z" />
    <glyph glyph-name="yen" unicode="&#xa5;" horiz-adv-x="708" 
d="M258 93h-184v120h184v50h-184v120h138l-208 317h220l132 -230l132 230h216l-209 -317h139v-120h-184v-50h184v-120h-184v-93h-192v93z" />
    <glyph glyph-name="section" unicode="&#xa7;" horiz-adv-x="626" 
d="M309 -13c-50 0 -95.668 7.5 -137.001 22.5s-74.666 33.833 -99.999 56.5l77 109c25.333 -18 52.166 -32.333 80.499 -43s56.166 -16 83.499 -16c19.333 0 33.166 2.66699 41.499 8s12.5 12.666 12.5 21.999v2c0 9.33301 -7.66699 17.333 -23 24s-40 13.667 -74 21
c-31.333 7.33301 -60.833 15 -88.5 23s-51.834 17.5 -72.501 28.5s-37 24.167 -49 39.5s-18 33.666 -18 54.999v2c0 30 8.5 53.5 25.5 70.5s38.833 30.167 65.5 39.5c-31.333 24 -47 57 -47 99v2c0 22 4.83301 42.833 14.5 62.5s24.167 36.834 43.5 51.501
s43.333 26.167 72 34.5s62.334 12.5 101.001 12.5c50 0 95.667 -7.5 137 -22.5s74.666 -33.833 99.999 -56.5l-77 -109c-25.333 18 -52.166 32.333 -80.499 43s-56.166 16 -83.499 16c-19.333 0 -33.166 -2.66699 -41.499 -8s-12.5 -12.666 -12.5 -21.999v-2
c0 -9.33301 7.16699 -17.333 21.5 -24s39.5 -13.667 75.5 -21c31.333 -6.66699 60.833 -14.167 88.5 -22.5s51.834 -18 72.501 -29s37 -24.167 49 -39.5s18 -33.666 18 -54.999v-2c0 -29.333 -8.5 -52.666 -25.5 -69.999s-38.833 -30.666 -65.5 -39.999
c14.667 -11.333 26.167 -25.333 34.5 -42s12.5 -35.334 12.5 -56.001v-2c0 -22 -4.83301 -42.833 -14.5 -62.5s-24 -36.834 -43 -51.501s-43 -26.334 -72 -35.001s-62.833 -13 -101.5 -13zM386.999 297c15.333 0 27.666 3 36.999 9s14 14.667 14 26v2
c0 11.333 -8.83301 20.833 -26.5 28.5s-42.5 15.167 -74.5 22.5c-46.667 12 -79.667 18 -99 18c-15.333 0 -27.666 -3 -36.999 -9s-14 -14.667 -14 -26v-2c0 -11.333 9 -20.833 27 -28.5s42.667 -15.167 74 -22.5c48 -12 81 -18 99 -18z" />
    <glyph glyph-name="dieresis" unicode="&#xa8;" 
d="M277 730h165v-143h-165v143zM58 730h165v-143h-165v143z" />
    <glyph glyph-name="copyright" unicode="&#xa9;" horiz-adv-x="830" 
d="M414 -14c-50.667 0 -98 9.66699 -142 29s-82.167 45.5 -114.5 78.5s-57.833 71.333 -76.5 115s-28 90.167 -28 139.5v2c0 49.333 9.33301 96 28 140s44.334 82.667 77.001 116s71.167 59.666 115.5 78.999s91.833 29 142.5 29s98 -9.66699 142 -29
s82.167 -45.5 114.5 -78.5s57.833 -71.333 76.5 -115s28 -90.167 28 -139.5v-2c0 -49.333 -9.33301 -96 -28 -140s-44.334 -82.667 -77.001 -116s-71.167 -59.666 -115.5 -78.999s-91.833 -29 -142.5 -29zM414 26c46 0 88.501 8.5 127.501 25.5s72.833 40.333 101.5 70
s51.167 64.167 67.5 103.5s24.5 81 24.5 125v2c0 44 -8 85.667 -24 125s-38.333 73.5 -67 102.5s-62.5 52 -101.5 69s-81.167 25.5 -126.5 25.5c-46 0 -88.5 -8.5 -127.5 -25.5s-72.833 -40.333 -101.5 -70s-51.167 -64.167 -67.5 -103.5s-24.5 -81 -24.5 -125v-2
c0 -44 8.16699 -85.667 24.5 -125s38.666 -73.5 66.999 -102.5s62 -52 101 -69s81.167 -25.5 126.5 -25.5zM420.001 156c-29.333 0 -56.3301 5.00098 -80.9971 15.001s-45.834 23.833 -63.501 41.5s-31.5 38.5 -41.5 62.5s-15 50 -15 78v2c0 27.333 5 53 15 77s24 45 42 63
s39.5 32.333 64.5 43s52.5 16 82.5 16c40 0 72.667 -7.33301 98 -22s46.666 -33.667 63.999 -57l-81 -64c-11.333 13.333 -23.5 24.166 -36.5 32.499s-28.833 12.5 -47.5 12.5c-26.667 0 -48.334 -9.66699 -65.001 -29s-25 -43 -25 -71v-2c0 -28 8.33301 -51.667 25 -71
s38.334 -29 65.001 -29c20 0 36.5 4.33301 49.5 13s25.167 19.667 36.5 33l82 -58c-18.667 -25.333 -40.834 -46 -66.501 -62s-59.5 -24 -101.5 -24z" />
    <glyph glyph-name="ordfeminine" unicode="&#xaa;" horiz-adv-x="390" 
d="M144 397c-28.667 0 -52.5 7.66602 -71.5 22.999s-28.5 38 -28.5 68v2c0 31.333 10.667 54.666 32 69.999s49.666 23 84.999 23c13.333 0 26.333 -1 39 -3s23.334 -4.66699 32.001 -8v4c0 32.667 -20 49 -60 49c-15.333 0 -29.5 -1.5 -42.5 -4.5
s-26.167 -7.16699 -39.5 -12.5l-21 74c17.333 7.33301 35.333 13 54 17s40.667 6 66 6c27.333 0 50.166 -3.16699 68.499 -9.5s33.5 -15.5 45.5 -27.5c11.333 -11.333 19.5 -24.666 24.5 -39.999s7.5 -33.666 7.5 -54.999v-170h-104v32
c-10 -11.333 -22.167 -20.5 -36.5 -27.5s-31.166 -10.5 -50.499 -10.5zM41 346.999h299v-77h-299v77zM181 462.999c15.333 0 27.832 4.33398 37.499 13.001s14.5 20.667 14.5 36v13c-5.33301 2 -11.5 3.83301 -18.5 5.5s-14.5 2.5 -22.5 2.5
c-14.667 0 -26.167 -3.33301 -34.5 -10s-12.5 -15.334 -12.5 -26.001v-2c0 -10 3.33301 -17.833 10 -23.5s15.334 -8.5 26.001 -8.5z" />
    <glyph glyph-name="guillemotleft" unicode="&#xab;" horiz-adv-x="631" 
d="M289 264v8l176 234l136 -67l-130 -171l130 -170l-136 -68zM30 244v48l160 214l137 -67l-130 -171l130 -170l-137 -68z" />
    <glyph glyph-name="registered" unicode="&#xae;" horiz-adv-x="830" 
d="M414 -14c-50.667 0 -98 9.66699 -142 29s-82.167 45.5 -114.5 78.5s-57.833 71.333 -76.5 115s-28 90.167 -28 139.5v2c0 49.333 9.33301 96 28 140s44.334 82.667 77.001 116s71.167 59.666 115.5 78.999s91.833 29 142.5 29s98 -9.66699 142 -29
s82.167 -45.5 114.5 -78.5s57.833 -71.333 76.5 -115s28 -90.167 28 -139.5v-2c0 -49.333 -9.33301 -96 -28 -140s-44.334 -82.667 -77.001 -116s-71.167 -59.666 -115.5 -78.999s-91.833 -29 -142.5 -29zM414 26c46 0 88.501 8.5 127.501 25.5s72.833 40.333 101.5 70
s51.167 64.167 67.5 103.5s24.5 81 24.5 125v2c0 44 -8 85.667 -24 125s-38.333 73.5 -67 102.5s-62.5 52 -101.5 69s-81.167 25.5 -126.5 25.5c-46 0 -88.5 -8.5 -127.5 -25.5s-72.833 -40.333 -101.5 -70s-51.167 -64.167 -67.5 -103.5s-24.5 -81 -24.5 -125v-2
c0 -44 8.16699 -85.667 24.5 -125s38.666 -73.5 66.999 -102.5s62 -52 101 -69s81.167 -25.5 126.5 -25.5zM256.001 553h179.001c30.667 0 56.667 -3.83301 78 -11.5s38.666 -18.167 51.999 -31.5c22 -22 33 -51.333 33 -88v-2c0 -30 -7.16699 -54.667 -21.5 -74
s-33.5 -34 -57.5 -44l92 -134h-123l-78 117h-2h-45v-117h-107v385zM433.002 368c18.667 0 33 4 43 12s15 19 15 33v2c0 15.333 -5.33301 26.833 -16 34.5s-25 11.5 -43 11.5h-69v-93h70z" />
    <glyph glyph-name="macron" unicode="&#xaf;" 
d="M62 708h376v-116h-376v116z" />
    <glyph glyph-name="degree" unicode="&#xb0;" horiz-adv-x="472" 
d="M236 352c-24.667 0 -47.998 4.66699 -69.998 14s-41.333 22 -58 38s-29.834 34.667 -39.501 56s-14.5 44 -14.5 68v2c0 24 5 46.833 15 68.5s23.333 40.667 40 57s36 29.166 58 38.499s45 14 69 14s47 -4.66699 69 -14s41.333 -22.166 58 -38.499s30 -35.333 40 -57
s15 -44.5 15 -68.5v-2c0 -24 -4.83301 -46.667 -14.5 -68s-22.834 -40 -39.501 -56s-36 -28.667 -58 -38s-45.333 -14 -70 -14zM236.002 444c24 0 43.998 8.16699 59.998 24.5s24 36.166 24 59.499v2c0 23.333 -8.16699 43.333 -24.5 60s-36.166 25 -59.499 25
s-43.166 -8.33301 -59.499 -25s-24.5 -36.667 -24.5 -60v-2c0 -23.333 8 -43.166 24 -59.499s36 -24.5 60 -24.5z" />
    <glyph glyph-name="plusminus" unicode="&#xb1;" horiz-adv-x="618" 
d="M317 -14c-65.333 0 -122.829 11 -172.496 33s-92.5 52.333 -128.5 91l121 119c25.333 -25.333 51.5 -44.833 78.5 -58.5s57.5 -20.5 91.5 -20.5c30 0 53.167 6.33301 69.5 19s24.5 28.667 24.5 48v2c0 19.333 -9 34.333 -27 45s-46.333 16 -85 16h-73v146h71
c35.333 0 60.666 5.83301 75.999 17.5s23 26.167 23 43.5v2c0 18 -7.83301 32.667 -23.5 44s-37.167 17 -64.5 17c-28 0 -53.333 -7.16699 -76 -21.5s-44 -32.5 -64 -54.5l-120 112c15.333 18 32.166 34.833 50.499 50.5s38.666 29.334 60.999 41.001s47 20.667 74 27
s57.5 9.5 91.5 9.5c39.333 0 74.833 -4.66699 106.5 -14s58.667 -22.333 81 -39s39.666 -36.5 51.999 -59.5s18.5 -47.833 18.5 -74.5v-2c0 -42 -9.66699 -75.833 -29 -101.5s-44.666 -45.834 -75.999 -60.501c36 -12 65.5 -30.333 88.5 -55s34.5 -58.667 34.5 -102v-2
c0 -31.333 -6.16699 -60.333 -18.5 -87s-30.333 -49.667 -54 -69s-52.334 -34.5 -86.001 -45.5s-72.167 -16.5 -115.5 -16.5z" />
    <glyph glyph-name="acute" unicode="&#xb4;" 
d="M235 772l177 -57l-147 -128h-134z" />
    <glyph glyph-name="mu" unicode="&#xb5;" horiz-adv-x="831" 
d="M518 0c-16.667 -4 -33.667 -7.16797 -51 -9.50098s-35 -3.5 -53 -3.5c-54 0 -104 9.33301 -150 28s-85.667 44.334 -119 77.001s-59.5 71 -78.5 115s-28.5 91 -28.5 141v2c0 50 9.5 97.167 28.5 141.5s45.5 83 79.5 116s74 59 120 78s96 28.5 150 28.5
s104 -9.5 150 -28.5s85.667 -44.833 119 -77.5s59.5 -71 78.5 -115s28.5 -91 28.5 -141v-2c0 -48 -8.66699 -93.333 -26 -136s-42 -80 -74 -112l175 -180v-10h-259zM416 160.999c26.667 0 51 5 73 15s40.667 23.5 56 40.5s27.333 36.833 36 59.5s13 46.667 13 72v2
c0 25.333 -4.33301 49.333 -13 72s-21 42.667 -37 60s-35 31.166 -57 41.499s-46.333 15.5 -73 15.5s-50.834 -5 -72.501 -15s-40.167 -23.5 -55.5 -40.5s-27.333 -36.833 -36 -59.5s-13 -46.667 -13 -72v-2c0 -25.333 4.33301 -49.333 13 -72s20.834 -42.667 36.501 -60
s34.5 -31.166 56.5 -41.499s46.333 -15.5 73 -15.5z" />
    <glyph glyph-name="paragraph" unicode="&#xb6;" horiz-adv-x="596" 
d="M339 220h-21c-42.667 0 -82.167 5.16699 -118.5 15.5s-67.666 25.5 -93.999 45.5s-46.833 44.667 -61.5 74s-22 63.333 -22 102v2c0 38.667 7 73 21 103s33.667 55.167 59 75.5s56.166 35.833 92.499 46.5s76.5 16 120.5 16h219v-700h-195v220z" />
    <glyph glyph-name="periodcentered" unicode="&#xb7;" horiz-adv-x="284" 
d="M43 410h198v-195h-198v195z" />
    <glyph glyph-name="cedilla" unicode="&#xb8;" 
d="M109 -109l92 124h125l-66 -188z" />
    <glyph glyph-name="ordmasculine" unicode="&#xba;" horiz-adv-x="390" 
d="M194 395c-23.333 0 -44.832 4 -64.499 12s-36.667 18.833 -51 32.5s-25.5 29.834 -33.5 48.501s-12 38.667 -12 60v2c0 21.333 4.16699 41.5 12.5 60.5s19.666 35.5 33.999 49.5s31.5 25 51.5 33s41.667 12 65 12s44.833 -4 64.5 -12s36.667 -18.833 51 -32.5
s25.5 -29.834 33.5 -48.501s12 -38.667 12 -60v-2c0 -21.333 -4 -41.5 -12 -60.5s-19.333 -35.5 -34 -49.5s-32 -25 -52 -33s-41.667 -12 -65 -12zM51.001 347h288v-77h-288v77zM196.001 484c18 0 32.333 6.16797 43 18.501s16 27.5 16 45.5v2
c0 18.667 -5.66699 34.5 -17 47.5s-26 19.5 -44 19.5s-32.333 -6.33301 -43 -19s-16 -28 -16 -46v-2c0 -18.667 5.66699 -34.334 17 -47.001s26 -19 44 -19z" />
    <glyph glyph-name="guillemotright" unicode="&#xbb;" horiz-adv-x="631" 
d="M305 97l130 171l-130 170l136 68l160 -214v-48l-160 -214zM30 97l130 171l-130 170l137 68l175 -234v-8l-175 -234z" />
    <glyph glyph-name="questiondown" unicode="&#xbf;" horiz-adv-x="540" 
d="M193 700h198v-170h-198v170zM271 -11c-36.667 0 -70.1689 4.83496 -100.502 14.502s-56.5 23.5 -78.5 41.5s-39.167 40 -51.5 66s-18.5 55.333 -18.5 88v2c0 31.333 4.83301 58.5 14.5 81.5s23.334 42.667 41.001 59s38.334 29.833 62.001 40.5s49.5 19.334 77.5 26.001
l11 64h121l26 -167l-9 -9c-58 -4.66699 -98.667 -13.834 -122 -27.501s-35 -31.167 -35 -52.5v-1c0 -17.333 6.66699 -30.833 20 -40.5s32 -14.5 56 -14.5c23.333 0 47.5 5.66699 72.5 17s49.167 27.666 72.5 48.999l101 -132
c-30.667 -30.667 -67.167 -55.834 -109.5 -75.501s-92.5 -29.5 -150.5 -29.5z" />
    <glyph glyph-name="Agrave" unicode="&#xc0;" horiz-adv-x="795" 
d="M304 705h187l298 -705h-208l-51 125h-270l-50 -125h-204zM474 276l-78 199l-79 -199h157zM196 875l177 57l104 -185h-134z" />
    <glyph glyph-name="Aacute" unicode="&#xc1;" horiz-adv-x="795" 
d="M304 705h187l298 -705h-208l-51 125h-270l-50 -125h-204zM474 276l-78 199l-79 -199h157zM423 932l177 -57l-147 -128h-134z" />
    <glyph glyph-name="Acircumflex" unicode="&#xc2;" horiz-adv-x="795" 
d="M304 705h187l298 -705h-208l-51 125h-270l-50 -125h-204zM474 276l-78 199l-79 -199h157zM321 912h154l128 -165h-122l-84 61l-84 -61h-120z" />
    <glyph glyph-name="Atilde" unicode="&#xc3;" horiz-adv-x="795" 
d="M304 705h187l298 -705h-208l-51 125h-270l-50 -125h-204zM474 276l-78 199l-79 -199h157zM187 765c10.667 50 25.334 87.333 44.001 112s45.334 37 80.001 37c15.333 0 30.5 -2 45.5 -6s29.333 -8.5 43 -13.5l38 -13.5c11.667 -4 21.5 -6 29.5 -6
c14 0 24.333 3.83301 31 11.5s13.334 19.167 20.001 34.5l91 -25c-10.667 -50 -25.334 -87.333 -44.001 -112s-45.334 -37 -80.001 -37c-14.667 0 -29.667 2 -45 6s-29.833 8.5 -43.5 13.5l-38 13.5c-11.667 4 -21.5 6 -29.5 6c-14 0 -24.333 -3.83301 -31 -11.5
s-13.334 -19.167 -20.001 -34.5z" />
    <glyph glyph-name="Adieresis" unicode="&#xc4;" horiz-adv-x="795" 
d="M304 705h187l298 -705h-208l-51 125h-270l-50 -125h-204zM474 276l-78 199l-79 -199h157zM425 890h165v-143h-165v143zM206 890h165v-143h-165v143z" />
    <glyph glyph-name="Aring" unicode="&#xc5;" horiz-adv-x="795" 
d="M296 687c-9.33301 10.667 -16.833 22.5 -22.5 35.5s-8.5 26.833 -8.5 41.5v2c0 17.333 3.66699 33.666 11 48.999s17 28.666 29 39.999s26 20.333 42 27s33 10 51 10c17.333 0 34 -3.33301 50 -10s30 -15.667 42 -27s21.667 -24.666 29 -39.999s11 -31.666 11 -48.999v-2
c0 -14.667 -2.83301 -28.5 -8.5 -41.5s-13.167 -24.833 -22.5 -35.5l290 -687h-208l-51 125h-270l-50 -125h-204zM398 698c18 0 33.5 6.5 46.5 19.5s19.5 28.5 19.5 46.5v2c0 17.333 -6.5 32.5 -19.5 45.5s-28.5 19.5 -46.5 19.5c-18.667 0 -34.5 -6.5 -47.5 -19.5
s-19.5 -28.167 -19.5 -45.5v-2c0 -18 6.5 -33.5 19.5 -46.5s28.833 -19.5 47.5 -19.5zM474 276l-78 199l-79 -199h157z" />
    <glyph glyph-name="AE" unicode="&#xc6;" horiz-adv-x="1063" 
d="M365 700h655v-165h-349v-106h314v-153h-314v-111h354v-165h-543v125h-226l-65 -125h-196zM482 276v265h-12l-136 -265h148z" />
    <glyph glyph-name="Ccedilla" unicode="&#xc7;" horiz-adv-x="730" 
d="M230 -109l77.998 106.003c-38.667 10 -74.5 25.5 -107.5 46.5s-61.5 46.833 -85.5 77.5s-42.833 65.167 -56.5 103.5s-20.5 79.5 -20.5 123.5v2c0 51.333 9.33301 99 28 143s44.334 82.5 77.001 115.5s71.667 58.833 117 77.5s94.333 28 147 28
c71.333 0 131 -13.5 179 -40.5s87.333 -62.167 118 -105.5l-146 -113c-20 25.333 -42 45.333 -66 60s-53 22 -87 22c-24.667 0 -47.167 -4.83301 -67.5 -14.5s-37.833 -22.834 -52.5 -39.501s-26.167 -36.334 -34.5 -59.001s-12.5 -46.667 -12.5 -72v-2
c0 -26 4.16699 -50.5 12.5 -73.5s19.833 -42.833 34.5 -59.5s32.167 -29.834 52.5 -39.501s42.833 -14.5 67.5 -14.5c36.667 0 66.834 7.83301 90.501 23.5s46.167 36.167 67.5 61.5l146 -104c-30 -41.333 -66.333 -76.333 -109 -105s-97 -45.667 -163 -51l-56 -161z" />
    <glyph glyph-name="Egrave" unicode="&#xc8;" horiz-adv-x="667" 
d="M62 700h563v-165h-371v-106h336v-153h-336v-111h376v-165h-568v700zM166 875l177 57l104 -185h-134z" />
    <glyph glyph-name="Eacute" unicode="&#xc9;" horiz-adv-x="667" 
d="M62 700h563v-165h-371v-106h336v-153h-336v-111h376v-165h-568v700zM356 932l177 -57l-147 -128h-134z" />
    <glyph glyph-name="Ecircumflex" unicode="&#xca;" horiz-adv-x="667" 
d="M62 700h563v-165h-371v-106h336v-153h-336v-111h376v-165h-568v700zM268 912h154l128 -165h-122l-84 61l-84 -61h-120z" />
    <glyph glyph-name="Edieresis" unicode="&#xcb;" horiz-adv-x="667" 
d="M62 700h563v-165h-371v-106h336v-153h-336v-111h376v-165h-568v700zM372 890h165v-143h-165v143zM153 890h165v-143h-165v143z" />
    <glyph glyph-name="Igrave" unicode="&#xcc;" horiz-adv-x="327" 
d="M66 700h195v-700h-195v700zM-41 875l177 57l104 -185h-134z" />
    <glyph glyph-name="Iacute" unicode="&#xcd;" horiz-adv-x="327" 
d="M66 700h195v-700h-195v700zM191 932l177 -57l-147 -128h-134z" />
    <glyph glyph-name="Icircumflex" unicode="&#xce;" horiz-adv-x="327" 
d="M66 700h195v-700h-195v700zM87 912h154l128 -165h-122l-84 61l-84 -61h-121z" />
    <glyph glyph-name="Idieresis" unicode="&#xcf;" horiz-adv-x="327" 
d="M66 700h195v-700h-195v700zM191 890h165v-143h-165v143zM-29 890h166v-143h-166v143z" />
    <glyph glyph-name="Eth" unicode="&#xd0;" horiz-adv-x="815" 
d="M111 276h-80.002v153h80v271h270c62.667 0 118.5 -8.5 167.5 -25.5s90.333 -40.833 124 -71.5s59.334 -67.167 77.001 -109.5s26.5 -88.833 26.5 -139.5v-2c0 -50.667 -9 -97.5 -27 -140.5s-44 -80.167 -78 -111.5s-75.667 -55.833 -125 -73.5
s-105.666 -26.5 -168.999 -26.5h-266v276zM383.998 167c60 0 107.167 15.833 141.5 47.5s51.5 76.5 51.5 134.5v2c0 57.333 -17.167 102 -51.5 134s-81.5 48 -141.5 48h-85v-104h119v-153h-119v-109h85z" />
    <glyph glyph-name="Ntilde" unicode="&#xd1;" horiz-adv-x="785" 
d="M62 700h181l288 -370v370h192v-700h-170l-299 384v-384h-192v700zM182 765c10.667 50 25.334 87.333 44.001 112s45.334 37 80.001 37c15.333 0 30.5 -2 45.5 -6s29.333 -8.5 43 -13.5l38 -13.5c11.667 -4 21.5 -6 29.5 -6c14 0 24.333 3.83301 31 11.5
s13.334 19.167 20.001 34.5l91 -25c-10.667 -50 -25.334 -87.333 -44.001 -112s-45.334 -37 -80.001 -37c-14.667 0 -29.667 2 -45 6s-29.833 8.5 -43.5 13.5l-38 13.5c-11.667 4 -21.5 6 -29.5 6c-14 0 -24.333 -3.83301 -31 -11.5s-13.334 -19.167 -20.001 -34.5z" />
    <glyph glyph-name="Ograve" unicode="&#xd2;" horiz-adv-x="831" 
d="M414 -14c-54 0 -104 9.5 -150 28.5s-85.667 44.833 -119 77.5s-59.5 71 -78.5 115s-28.5 91 -28.5 141v2c0 50 9.5 97.167 28.5 141.5s45.5 83 79.5 116s74 59 120 78s96 28.5 150 28.5s104 -9.5 150 -28.5s85.667 -44.833 119 -77.5s59.5 -71 78.5 -115
s28.5 -91 28.5 -141v-2c0 -50 -9.5 -97.167 -28.5 -141.5s-45.5 -83 -79.5 -116s-74 -59 -120 -78s-96 -28.5 -150 -28.5zM416 161c26.667 0 51 5 73 15s40.667 23.5 56 40.5s27.333 36.833 36 59.5s13 46.667 13 72v2c0 25.333 -4.33301 49.333 -13 72s-21 42.667 -37 60
s-35 31.166 -57 41.499s-46.333 15.5 -73 15.5s-50.834 -5 -72.501 -15s-40.167 -23.5 -55.5 -40.5s-27.333 -36.833 -36 -59.5s-13 -46.667 -13 -72v-2c0 -25.333 4.33301 -49.333 13 -72s20.834 -42.667 36.501 -60s34.5 -31.166 56.5 -41.499s46.333 -15.5 73 -15.5z
M204 875l177 57l104 -185h-134z" />
    <glyph glyph-name="Oacute" unicode="&#xd3;" horiz-adv-x="831" 
d="M414 -14c-54 0 -104 9.5 -150 28.5s-85.667 44.833 -119 77.5s-59.5 71 -78.5 115s-28.5 91 -28.5 141v2c0 50 9.5 97.167 28.5 141.5s45.5 83 79.5 116s74 59 120 78s96 28.5 150 28.5s104 -9.5 150 -28.5s85.667 -44.833 119 -77.5s59.5 -71 78.5 -115
s28.5 -91 28.5 -141v-2c0 -50 -9.5 -97.167 -28.5 -141.5s-45.5 -83 -79.5 -116s-74 -59 -120 -78s-96 -28.5 -150 -28.5zM416 161c26.667 0 51 5 73 15s40.667 23.5 56 40.5s27.333 36.833 36 59.5s13 46.667 13 72v2c0 25.333 -4.33301 49.333 -13 72s-21 42.667 -37 60
s-35 31.166 -57 41.499s-46.333 15.5 -73 15.5s-50.834 -5 -72.501 -15s-40.167 -23.5 -55.5 -40.5s-27.333 -36.833 -36 -59.5s-13 -46.667 -13 -72v-2c0 -25.333 4.33301 -49.333 13 -72s20.834 -42.667 36.501 -60s34.5 -31.166 56.5 -41.499s46.333 -15.5 73 -15.5z
M451 932l177 -57l-147 -128h-134z" />
    <glyph glyph-name="Ocircumflex" unicode="&#xd4;" horiz-adv-x="831" 
d="M414 -14c-54 0 -104 9.5 -150 28.5s-85.667 44.833 -119 77.5s-59.5 71 -78.5 115s-28.5 91 -28.5 141v2c0 50 9.5 97.167 28.5 141.5s45.5 83 79.5 116s74 59 120 78s96 28.5 150 28.5s104 -9.5 150 -28.5s85.667 -44.833 119 -77.5s59.5 -71 78.5 -115
s28.5 -91 28.5 -141v-2c0 -50 -9.5 -97.167 -28.5 -141.5s-45.5 -83 -79.5 -116s-74 -59 -120 -78s-96 -28.5 -150 -28.5zM416 161c26.667 0 51 5 73 15s40.667 23.5 56 40.5s27.333 36.833 36 59.5s13 46.667 13 72v2c0 25.333 -4.33301 49.333 -13 72s-21 42.667 -37 60
s-35 31.166 -57 41.499s-46.333 15.5 -73 15.5s-50.834 -5 -72.501 -15s-40.167 -23.5 -55.5 -40.5s-27.333 -36.833 -36 -59.5s-13 -46.667 -13 -72v-2c0 -25.333 4.33301 -49.333 13 -72s20.834 -42.667 36.501 -60s34.5 -31.166 56.5 -41.499s46.333 -15.5 73 -15.5z
M339 910h154l128 -165h-122l-84 61l-84 -61h-120z" />
    <glyph glyph-name="Otilde" unicode="&#xd5;" horiz-adv-x="831" 
d="M414 -14c-54 0 -104 9.5 -150 28.5s-85.667 44.833 -119 77.5s-59.5 71 -78.5 115s-28.5 91 -28.5 141v2c0 50 9.5 97.167 28.5 141.5s45.5 83 79.5 116s74 59 120 78s96 28.5 150 28.5s104 -9.5 150 -28.5s85.667 -44.833 119 -77.5s59.5 -71 78.5 -115
s28.5 -91 28.5 -141v-2c0 -50 -9.5 -97.167 -28.5 -141.5s-45.5 -83 -79.5 -116s-74 -59 -120 -78s-96 -28.5 -150 -28.5zM416 161c26.667 0 51 5 73 15s40.667 23.5 56 40.5s27.333 36.833 36 59.5s13 46.667 13 72v2c0 25.333 -4.33301 49.333 -13 72s-21 42.667 -37 60
s-35 31.166 -57 41.499s-46.333 15.5 -73 15.5s-50.834 -5 -72.501 -15s-40.167 -23.5 -55.5 -40.5s-27.333 -36.833 -36 -59.5s-13 -46.667 -13 -72v-2c0 -25.333 4.33301 -49.333 13 -72s20.834 -42.667 36.501 -60s34.5 -31.166 56.5 -41.499s46.333 -15.5 73 -15.5z
M205 765c10.667 50 25.334 87.333 44.001 112s45.334 37 80.001 37c15.333 0 30.5 -2 45.5 -6s29.333 -8.5 43 -13.5l38 -13.5c11.667 -4 21.5 -6 29.5 -6c14 0 24.333 3.83301 31 11.5s13.334 19.167 20.001 34.5l91 -25c-10.667 -50 -25.334 -87.333 -44.001 -112
s-45.334 -37 -80.001 -37c-14.667 0 -29.667 2 -45 6s-29.833 8.5 -43.5 13.5l-38 13.5c-11.667 4 -21.5 6 -29.5 6c-14 0 -24.333 -3.83301 -31 -11.5s-13.334 -19.167 -20.001 -34.5z" />
    <glyph glyph-name="Odieresis" unicode="&#xd6;" horiz-adv-x="831" 
d="M414 -14c-54 0 -104 9.5 -150 28.5s-85.667 44.833 -119 77.5s-59.5 71 -78.5 115s-28.5 91 -28.5 141v2c0 50 9.5 97.167 28.5 141.5s45.5 83 79.5 116s74 59 120 78s96 28.5 150 28.5s104 -9.5 150 -28.5s85.667 -44.833 119 -77.5s59.5 -71 78.5 -115
s28.5 -91 28.5 -141v-2c0 -50 -9.5 -97.167 -28.5 -141.5s-45.5 -83 -79.5 -116s-74 -59 -120 -78s-96 -28.5 -150 -28.5zM416 161c26.667 0 51 5 73 15s40.667 23.5 56 40.5s27.333 36.833 36 59.5s13 46.667 13 72v2c0 25.333 -4.33301 49.333 -13 72s-21 42.667 -37 60
s-35 31.166 -57 41.499s-46.333 15.5 -73 15.5s-50.834 -5 -72.501 -15s-40.167 -23.5 -55.5 -40.5s-27.333 -36.833 -36 -59.5s-13 -46.667 -13 -72v-2c0 -25.333 4.33301 -49.333 13 -72s20.834 -42.667 36.501 -60s34.5 -31.166 56.5 -41.499s46.333 -15.5 73 -15.5z
M443 890h165v-143h-165v143zM224 890h165v-143h-165v143z" />
    <glyph glyph-name="Oslash" unicode="&#xd8;" horiz-adv-x="831" 
d="M414 -14c-36.667 0 -71.666 4.50098 -104.999 13.501s-64.333 22.167 -93 39.5l-39 -44h-147l100 112c-29.333 32 -52 68.5 -68 109.5s-24 84.833 -24 131.5v2c0 50 9.5 97.167 28.5 141.5s45.5 83 79.5 116s74 59 120 78s96 28.5 150 28.5
c37.333 0 72.666 -4.5 105.999 -13.5s64 -22.167 92 -39.5l39 44h147l-99 -113c28.667 -32 51 -68.333 67 -109s24 -84.334 24 -131.001v-2c0 -50 -9.5 -97.167 -28.5 -141.5s-45.5 -83 -79.5 -116s-74 -59 -120 -78s-96 -28.5 -150 -28.5zM495.001 524.001
c-24 12.667 -50.999 18.998 -80.999 18.998c-26.667 0 -51.167 -5.16699 -73.5 -15.5s-41.333 -24.166 -57 -41.499s-27.834 -37.5 -36.501 -60.5s-13 -47.5 -13 -73.5v-2c0 -35.333 8 -67.666 24 -96.999zM416.002 156.999c27.333 0 52.166 5.16797 74.499 15.501
s41.333 24.166 57 41.499s27.834 37.5 36.501 60.5s13 47.5 13 73.5v2c0 36 -8 68.333 -24 97l-238 -271c25.333 -12.667 52.333 -19 81 -19z" />
    <glyph glyph-name="Ugrave" unicode="&#xd9;" horiz-adv-x="758" 
d="M377 -13c-50 0 -94.999 6.33789 -134.999 19.0049s-74 32.167 -102 58.5s-49.5 59.666 -64.5 99.999s-22.5 87.833 -22.5 142.5v393h197v-389c0 -50.667 11.667 -88.167 35 -112.5s54.666 -36.5 93.999 -36.5s70.666 11.667 93.999 35s35 59.666 35 108.999v394h197v-388
c0 -56.667 -7.83301 -105.334 -23.5 -146.001s-37.667 -74.334 -66 -101.001s-62.666 -46.334 -102.999 -59.001s-85.5 -19 -135.5 -19zM176.001 870.005l177 57l104 -185h-134z" />
    <glyph glyph-name="Uacute" unicode="&#xda;" horiz-adv-x="758" 
d="M377 -13c-50 0 -94.999 6.33789 -134.999 19.0049s-74 32.167 -102 58.5s-49.5 59.666 -64.5 99.999s-22.5 87.833 -22.5 142.5v393h197v-389c0 -50.667 11.667 -88.167 35 -112.5s54.666 -36.5 93.999 -36.5s70.666 11.667 93.999 35s35 59.666 35 108.999v394h197v-388
c0 -56.667 -7.83301 -105.334 -23.5 -146.001s-37.667 -74.334 -66 -101.001s-62.666 -46.334 -102.999 -59.001s-85.5 -19 -135.5 -19zM405.001 927.005l177 -57l-147 -128h-134z" />
    <glyph glyph-name="Ucircumflex" unicode="&#xdb;" horiz-adv-x="758" 
d="M377 -13c-50 0 -94.999 6.33789 -134.999 19.0049s-74 32.167 -102 58.5s-49.5 59.666 -64.5 99.999s-22.5 87.833 -22.5 142.5v393h197v-389c0 -50.667 11.667 -88.167 35 -112.5s54.666 -36.5 93.999 -36.5s70.666 11.667 93.999 35s35 59.666 35 108.999v394h197v-388
c0 -56.667 -7.83301 -105.334 -23.5 -146.001s-37.667 -74.334 -66 -101.001s-62.666 -46.334 -102.999 -59.001s-85.5 -19 -135.5 -19zM302.001 912.005h154l128 -165h-122l-84 61l-84 -61h-120z" />
    <glyph glyph-name="Udieresis" unicode="&#xdc;" horiz-adv-x="758" 
d="M377 -13c-50 0 -94.999 6.33789 -134.999 19.0049s-74 32.167 -102 58.5s-49.5 59.666 -64.5 99.999s-22.5 87.833 -22.5 142.5v393h197v-389c0 -50.667 11.667 -88.167 35 -112.5s54.666 -36.5 93.999 -36.5s70.666 11.667 93.999 35s35 59.666 35 108.999v394h197v-388
c0 -56.667 -7.83301 -105.334 -23.5 -146.001s-37.667 -74.334 -66 -101.001s-62.666 -46.334 -102.999 -59.001s-85.5 -19 -135.5 -19zM406.001 890.005h165v-143h-165v143zM187.001 890.005h165v-143h-165v143z" />
    <glyph glyph-name="Yacute" unicode="&#xdd;" horiz-adv-x="723" 
d="M264 262l-266 438h221l144 -255l145 255h217l-266 -435v-265h-195v262zM385 930l177 -57l-147 -128h-134z" />
    <glyph glyph-name="Thorn" unicode="&#xde;" horiz-adv-x="682" 
d="M62 700h194v-100h106c44 0 84 -5.33301 120 -16s66.667 -26.334 92 -47.001s44.833 -46.167 58.5 -76.5s20.5 -64.833 20.5 -103.5v-2c0 -41.333 -7.5 -77.666 -22.5 -108.999s-35.833 -57.5 -62.5 -78.5s-58.5 -36.667 -95.5 -47s-77.167 -15.5 -120.5 -15.5h-96v-105
h-194v700zM348 260c34.667 0 61.833 8.16699 81.5 24.5s29.5 38.5 29.5 66.5v2c0 30 -9.83301 52.667 -29.5 68s-47.167 23 -82.5 23h-91v-184h92z" />
    <glyph glyph-name="germandbls" unicode="&#xdf;" horiz-adv-x="635" 
d="M307 133c36 2 63.832 10.0049 83.499 24.0049s29.5 33 29.5 57v2c0 24 -10.333 42.667 -31 56s-48 21.666 -82 24.999v101c22 11.333 41.167 25.666 57.5 42.999s24.5 38.666 24.5 63.999v2c0 22.667 -6.5 40.5 -19.5 53.5s-29.5 19.5 -49.5 19.5
c-23.333 0 -42.5 -8.16699 -57.5 -24.5s-22.5 -40.5 -22.5 -72.5v-483h-189v479c0 39.333 5.83301 74.833 17.5 106.5s29 59 52 82s51.5 40.667 85.5 53s73 18.5 117 18.5c39.333 0 74.333 -5.5 105 -16.5s56.834 -25.833 78.501 -44.5s38.167 -40.667 49.5 -66
s17 -52.666 17 -81.999v-2c0 -41.333 -10.167 -75.333 -30.5 -102s-44.833 -47.334 -73.5 -62.001c16.667 -5.33301 33.334 -12.666 50.001 -21.999s31.5 -21 44.5 -35s23.667 -30.333 32 -49s12.5 -40 12.5 -64v-2c0 -32.667 -7.5 -61.834 -22.5 -87.501
s-35.833 -46.834 -62.5 -63.501s-58.334 -28.834 -95.001 -36.501s-77 -10.167 -121 -7.5v136z" />
    <glyph glyph-name="agrave" unicode="&#xe0;" horiz-adv-x="599" 
d="M206 -12c-26 0 -50 3.66309 -72 10.9961s-41.167 18 -57.5 32s-29.166 31.5 -38.499 52.5s-14 44.833 -14 71.5v2c0 56 19.5 98.333 58.5 127s90.167 43 153.5 43c25.333 0 49.5 -2.16699 72.5 -6.5s42.167 -9.16602 57.5 -14.499v9c0 28 -8.83301 49.667 -26.5 65
s-44.834 23 -81.501 23c-28.667 0 -54.667 -2.66699 -78 -8s-47 -12.666 -71 -21.999l-39 134c30.667 12.667 63.167 22.834 97.5 30.501s74.833 11.5 121.5 11.5c48.667 0 89.834 -5.66699 123.501 -17s61.167 -27.666 82.5 -48.999c20.667 -20 35.5 -44.167 44.5 -72.5
s13.5 -61.5 13.5 -99.5v-311h-188v56c-18.667 -20.667 -40.834 -37.167 -66.501 -49.5s-56.5 -18.5 -92.5 -18.5zM274 106.996c28 0 50.667 8 68 24s26 37.667 26 65v25c-9.33301 4 -20.5 7.33301 -33.5 10s-26.5 4 -40.5 4c-28 0 -49.5 -6.16699 -64.5 -18.5
s-22.5 -28.5 -22.5 -48.5v-2c0 -18.667 6.33301 -33.167 19 -43.5s28.667 -15.5 48 -15.5zM105 716.996l177 57l104 -185h-134z" />
    <glyph glyph-name="aacute" unicode="&#xe1;" horiz-adv-x="599" 
d="M206 -12c-26 0 -50 3.66309 -72 10.9961s-41.167 18 -57.5 32s-29.166 31.5 -38.499 52.5s-14 44.833 -14 71.5v2c0 56 19.5 98.333 58.5 127s90.167 43 153.5 43c25.333 0 49.5 -2.16699 72.5 -6.5s42.167 -9.16602 57.5 -14.499v9c0 28 -8.83301 49.667 -26.5 65
s-44.834 23 -81.501 23c-28.667 0 -54.667 -2.66699 -78 -8s-47 -12.666 -71 -21.999l-39 134c30.667 12.667 63.167 22.834 97.5 30.501s74.833 11.5 121.5 11.5c48.667 0 89.834 -5.66699 123.501 -17s61.167 -27.666 82.5 -48.999c20.667 -20 35.5 -44.167 44.5 -72.5
s13.5 -61.5 13.5 -99.5v-311h-188v56c-18.667 -20.667 -40.834 -37.167 -66.501 -49.5s-56.5 -18.5 -92.5 -18.5zM274 106.996c28 0 50.667 8 68 24s26 37.667 26 65v25c-9.33301 4 -20.5 7.33301 -33.5 10s-26.5 4 -40.5 4c-28 0 -49.5 -6.16699 -64.5 -18.5
s-22.5 -28.5 -22.5 -48.5v-2c0 -18.667 6.33301 -33.167 19 -43.5s28.667 -15.5 48 -15.5zM320 773.996l177 -57l-147 -128h-134z" />
    <glyph glyph-name="acircumflex" unicode="&#xe2;" horiz-adv-x="599" 
d="M206 -12c-26 0 -50 3.66309 -72 10.9961s-41.167 18 -57.5 32s-29.166 31.5 -38.499 52.5s-14 44.833 -14 71.5v2c0 56 19.5 98.333 58.5 127s90.167 43 153.5 43c25.333 0 49.5 -2.16699 72.5 -6.5s42.167 -9.16602 57.5 -14.499v9c0 28 -8.83301 49.667 -26.5 65
s-44.834 23 -81.501 23c-28.667 0 -54.667 -2.66699 -78 -8s-47 -12.666 -71 -21.999l-39 134c30.667 12.667 63.167 22.834 97.5 30.501s74.833 11.5 121.5 11.5c48.667 0 89.834 -5.66699 123.501 -17s61.167 -27.666 82.5 -48.999c20.667 -20 35.5 -44.167 44.5 -72.5
s13.5 -61.5 13.5 -99.5v-311h-188v56c-18.667 -20.667 -40.834 -37.167 -66.501 -49.5s-56.5 -18.5 -92.5 -18.5zM274 106.996c28 0 50.667 8 68 24s26 37.667 26 65v25c-9.33301 4 -20.5 7.33301 -33.5 10s-26.5 4 -40.5 4c-28 0 -49.5 -6.16699 -64.5 -18.5
s-22.5 -28.5 -22.5 -48.5v-2c0 -18.667 6.33301 -33.167 19 -43.5s28.667 -15.5 48 -15.5zM220 751.996h154l128 -165h-122l-84 61l-84 -61h-120z" />
    <glyph glyph-name="atilde" unicode="&#xe3;" horiz-adv-x="599" 
d="M206 -12c-26 0 -50 3.66309 -72 10.9961s-41.167 18 -57.5 32s-29.166 31.5 -38.499 52.5s-14 44.833 -14 71.5v2c0 56 19.5 98.333 58.5 127s90.167 43 153.5 43c25.333 0 49.5 -2.16699 72.5 -6.5s42.167 -9.16602 57.5 -14.499v9c0 28 -8.83301 49.667 -26.5 65
s-44.834 23 -81.501 23c-28.667 0 -54.667 -2.66699 -78 -8s-47 -12.666 -71 -21.999l-39 134c30.667 12.667 63.167 22.834 97.5 30.501s74.833 11.5 121.5 11.5c48.667 0 89.834 -5.66699 123.501 -17s61.167 -27.666 82.5 -48.999c20.667 -20 35.5 -44.167 44.5 -72.5
s13.5 -61.5 13.5 -99.5v-311h-188v56c-18.667 -20.667 -40.834 -37.167 -66.501 -49.5s-56.5 -18.5 -92.5 -18.5zM274 106.996c28 0 50.667 8 68 24s26 37.667 26 65v25c-9.33301 4 -20.5 7.33301 -33.5 10s-26.5 4 -40.5 4c-28 0 -49.5 -6.16699 -64.5 -18.5
s-22.5 -28.5 -22.5 -48.5v-2c0 -18.667 6.33301 -33.167 19 -43.5s28.667 -15.5 48 -15.5zM88 604.996c10.667 50 25.334 87.333 44.001 112s45.334 37 80.001 37c15.333 0 30.5 -2 45.5 -6s29.333 -8.5 43 -13.5l38 -13.5c11.667 -4 21.5 -6 29.5 -6
c14 0 24.333 3.83301 31 11.5s13.334 19.167 20.001 34.5l91 -25c-10.667 -50 -25.334 -87.333 -44.001 -112s-45.334 -37 -80.001 -37c-14.667 0 -29.667 2 -45 6s-29.833 8.5 -43.5 13.5l-38 13.5c-11.667 4 -21.5 6 -29.5 6c-14 0 -24.333 -3.83301 -31 -11.5
s-13.334 -19.167 -20.001 -34.5z" />
    <glyph glyph-name="adieresis" unicode="&#xe4;" horiz-adv-x="599" 
d="M206 -12c-26 0 -50 3.66309 -72 10.9961s-41.167 18 -57.5 32s-29.166 31.5 -38.499 52.5s-14 44.833 -14 71.5v2c0 56 19.5 98.333 58.5 127s90.167 43 153.5 43c25.333 0 49.5 -2.16699 72.5 -6.5s42.167 -9.16602 57.5 -14.499v9c0 28 -8.83301 49.667 -26.5 65
s-44.834 23 -81.501 23c-28.667 0 -54.667 -2.66699 -78 -8s-47 -12.666 -71 -21.999l-39 134c30.667 12.667 63.167 22.834 97.5 30.501s74.833 11.5 121.5 11.5c48.667 0 89.834 -5.66699 123.501 -17s61.167 -27.666 82.5 -48.999c20.667 -20 35.5 -44.167 44.5 -72.5
s13.5 -61.5 13.5 -99.5v-311h-188v56c-18.667 -20.667 -40.834 -37.167 -66.501 -49.5s-56.5 -18.5 -92.5 -18.5zM274 106.996c28 0 50.667 8 68 24s26 37.667 26 65v25c-9.33301 4 -20.5 7.33301 -33.5 10s-26.5 4 -40.5 4c-28 0 -49.5 -6.16699 -64.5 -18.5
s-22.5 -28.5 -22.5 -48.5v-2c0 -18.667 6.33301 -33.167 19 -43.5s28.667 -15.5 48 -15.5zM324 731.996h165v-143h-165v143zM105 731.996h165v-143h-165v143z" />
    <glyph glyph-name="aring" unicode="&#xe5;" horiz-adv-x="599" 
d="M206 -12c-26 0 -50 3.66309 -72 10.9961s-41.167 18 -57.5 32s-29.166 31.5 -38.499 52.5s-14 44.833 -14 71.5v2c0 56 19.5 98.333 58.5 127s90.167 43 153.5 43c25.333 0 49.5 -2.16699 72.5 -6.5s42.167 -9.16602 57.5 -14.499v9c0 28 -8.83301 49.667 -26.5 65
s-44.834 23 -81.501 23c-28.667 0 -54.667 -2.66699 -78 -8s-47 -12.666 -71 -21.999l-39 134c30.667 12.667 63.167 22.834 97.5 30.501s74.833 11.5 121.5 11.5c48.667 0 89.834 -5.66699 123.501 -17s61.167 -27.666 82.5 -48.999c20.667 -20 35.5 -44.167 44.5 -72.5
s13.5 -61.5 13.5 -99.5v-311h-188v56c-18.667 -20.667 -40.834 -37.167 -66.501 -49.5s-56.5 -18.5 -92.5 -18.5zM274 106.996c28 0 50.667 8 68 24s26 37.667 26 65v25c-9.33301 4 -20.5 7.33301 -33.5 10s-26.5 4 -40.5 4c-28 0 -49.5 -6.16699 -64.5 -18.5
s-22.5 -28.5 -22.5 -48.5v-2c0 -18.667 6.33301 -33.167 19 -43.5s28.667 -15.5 48 -15.5zM297 590.996c-17.333 0 -34 3.5 -50 10.5s-30.167 16.167 -42.5 27.5s-22.166 24.833 -29.499 40.5s-11 31.834 -11 48.501v2c0 17.333 3.66699 33.666 11 48.999
s17.166 28.666 29.499 39.999s26.5 20.333 42.5 27s32.667 10 50 10s34 -3.33301 50 -10s30.167 -15.667 42.5 -27s22.166 -24.666 29.499 -39.999s11 -31.666 11 -48.999v-2c0 -16.667 -3.66699 -32.834 -11 -48.501s-17.166 -29.167 -29.499 -40.5
s-26.5 -20.5 -42.5 -27.5s-32.667 -10.5 -50 -10.5zM297 651.996c18.667 0 34.5 6.5 47.5 19.5s19.5 28.5 19.5 46.5v2c0 17.333 -6.5 32.5 -19.5 45.5s-28.833 19.5 -47.5 19.5s-34.5 -6.5 -47.5 -19.5s-19.5 -28.167 -19.5 -45.5v-2c0 -18 6.5 -33.5 19.5 -46.5
s28.833 -19.5 47.5 -19.5z" />
    <glyph glyph-name="ae" unicode="&#xe6;" horiz-adv-x="940" 
d="M225 -12c-28 0 -54.1631 3.49902 -78.4961 10.499s-45.5 17.5 -63.5 31.5s-32.333 31.333 -43 52s-16 45 -16 73v2c0 56 19.5 98.333 58.5 127s90.167 43 153.5 43c25.333 0 49.5 -2.16699 72.5 -6.5s42.167 -9.16602 57.5 -14.499v9c0 28 -8.83301 49.667 -26.5 65
s-44.834 23 -81.501 23c-28.667 0 -54.667 -2.66699 -78 -8s-47 -12.666 -71 -21.999l-39 134c30.667 12.667 63.167 22.834 97.5 30.501s74.833 11.5 121.5 11.5c44 0 80.667 -5.33301 110 -16s53.666 -25.667 72.999 -45c21.333 20.667 46.166 36.667 74.499 48
s59.833 17 94.5 17c45.333 0 84.833 -8 118.5 -24s61.667 -37.5 84 -64.5s39 -58.333 50 -94s16.5 -73.5 16.5 -113.5c0 -6 -0.166992 -12.333 -0.5 -19s-0.833008 -13.334 -1.5 -20.001h-362c8 -30 22.167 -52.333 42.5 -67s45.166 -22 74.499 -22
c23.333 0 44.333 4.33301 63 13s37.667 22.667 57 42l105 -87c-26 -33.333 -58 -60 -96 -80s-84 -30 -138 -30c-44 0 -84 7.16699 -120 21.5s-66.667 34.166 -92 59.499c-32 -24 -66.167 -43.333 -102.5 -58s-74.5 -22 -114.5 -22zM732.004 314.999
c-3.33301 30 -13.5 53.833 -30.5 71.5s-38.5 26.5 -64.5 26.5c-25.333 0 -46 -8.83301 -62 -26.5s-26.333 -41.5 -31 -71.5h188zM277.004 108.999c36 0 72.332 14.667 108.999 44c-4.66699 10.667 -8.66699 21.667 -12 33s-5.66602 23 -6.99902 35
c-9.33301 4 -20.5 7.33301 -33.5 10s-26.167 4 -39.5 4c-28 0 -49.5 -6.16699 -64.5 -18.5s-22.5 -28.5 -22.5 -48.5v-2c0 -18 6.66699 -32 20 -42s30 -15 50 -15z" />
    <glyph glyph-name="ccedilla" unicode="&#xe7;" horiz-adv-x="569" 
d="M141 -109l80.998 110.003c-28.667 9.33301 -54.834 22.666 -78.501 39.999s-44 37.666 -61 60.999s-30.167 49.166 -39.5 77.499s-14 57.833 -14 88.5v2c0 38 7.16699 74.167 21.5 108.5s34.166 64.333 59.499 90s55.833 46 91.5 61s74.834 22.5 117.501 22.5
c56 0 102.667 -11 140 -33s67.666 -51.333 90.999 -88l-129 -96c-13.333 18 -27.666 32 -42.999 42s-34.666 15 -57.999 15c-15.333 0 -29.5 -3.16699 -42.5 -9.5s-24.167 -15 -33.5 -26s-16.666 -23.667 -21.999 -38s-8 -29.833 -8 -46.5v-2
c0 -35.333 10 -64.666 30 -87.999s46 -35 78 -35c22.667 0 41.834 5 57.501 15s31.167 23.667 46.5 41l127 -92c-22.667 -33.333 -50 -60.833 -82 -82.5s-72.667 -34.834 -122 -39.501l-57 -162z" />
    <glyph glyph-name="egrave" unicode="&#xe8;" horiz-adv-x="605" 
d="M319 -13c-42.667 0 -81.6631 6.83398 -116.996 20.501s-65.833 32.667 -91.5 57s-45.667 53.833 -60 88.5s-21.5 73 -21.5 115v2c0 39.333 6.66699 76.333 20 111s32.166 64.667 56.499 90s53.166 45.333 86.499 60s70 22 110 22c46.667 0 87.167 -8 121.5 -24
s62.666 -37.5 84.999 -64.5s39 -58.333 50 -94s16.5 -73.5 16.5 -113.5v-19c0 -6.66699 -0.333008 -13.334 -1 -20.001h-362c7.33301 -30 21.166 -52.333 41.499 -67s45.5 -22 75.5 -22c22.667 0 43.5 4.33301 62.5 13s38.167 22.667 57.5 42l105 -87
c-26 -33.333 -58.167 -60 -96.5 -80s-84.5 -30 -138.5 -30zM397.004 315.001c-3.33301 30 -13.333 53.833 -30 71.5s-38 26.5 -64 26.5c-25.333 0 -46 -8.83301 -62 -26.5s-26.667 -41.5 -32 -71.5h188zM97.0039 717.001l177 57l104 -185h-134z" />
    <glyph glyph-name="eacute" unicode="&#xe9;" horiz-adv-x="605" 
d="M319 -13c-42.667 0 -81.6631 6.83398 -116.996 20.501s-65.833 32.667 -91.5 57s-45.667 53.833 -60 88.5s-21.5 73 -21.5 115v2c0 39.333 6.66699 76.333 20 111s32.166 64.667 56.499 90s53.166 45.333 86.499 60s70 22 110 22c46.667 0 87.167 -8 121.5 -24
s62.666 -37.5 84.999 -64.5s39 -58.333 50 -94s16.5 -73.5 16.5 -113.5v-19c0 -6.66699 -0.333008 -13.334 -1 -20.001h-362c7.33301 -30 21.166 -52.333 41.499 -67s45.5 -22 75.5 -22c22.667 0 43.5 4.33301 62.5 13s38.167 22.667 57.5 42l105 -87
c-26 -33.333 -58.167 -60 -96.5 -80s-84.5 -30 -138.5 -30zM397.004 315.001c-3.33301 30 -13.333 53.833 -30 71.5s-38 26.5 -64 26.5c-25.333 0 -46 -8.83301 -62 -26.5s-26.667 -41.5 -32 -71.5h188zM332.004 774.001l177 -57l-147 -128h-134z" />
    <glyph glyph-name="ecircumflex" unicode="&#xea;" horiz-adv-x="605" 
d="M319 -13c-42.667 0 -81.6631 6.83398 -116.996 20.501s-65.833 32.667 -91.5 57s-45.667 53.833 -60 88.5s-21.5 73 -21.5 115v2c0 39.333 6.66699 76.333 20 111s32.166 64.667 56.499 90s53.166 45.333 86.499 60s70 22 110 22c46.667 0 87.167 -8 121.5 -24
s62.666 -37.5 84.999 -64.5s39 -58.333 50 -94s16.5 -73.5 16.5 -113.5v-19c0 -6.66699 -0.333008 -13.334 -1 -20.001h-362c7.33301 -30 21.166 -52.333 41.499 -67s45.5 -22 75.5 -22c22.667 0 43.5 4.33301 62.5 13s38.167 22.667 57.5 42l105 -87
c-26 -33.333 -58.167 -60 -96.5 -80s-84.5 -30 -138.5 -30zM397.004 315.001c-3.33301 30 -13.333 53.833 -30 71.5s-38 26.5 -64 26.5c-25.333 0 -46 -8.83301 -62 -26.5s-26.667 -41.5 -32 -71.5h188zM226.004 750.001h154l128 -165h-122l-84 61l-84 -61h-120z" />
    <glyph glyph-name="edieresis" unicode="&#xeb;" horiz-adv-x="605" 
d="M319 -13c-42.667 0 -81.6631 6.83398 -116.996 20.501s-65.833 32.667 -91.5 57s-45.667 53.833 -60 88.5s-21.5 73 -21.5 115v2c0 39.333 6.66699 76.333 20 111s32.166 64.667 56.499 90s53.166 45.333 86.499 60s70 22 110 22c46.667 0 87.167 -8 121.5 -24
s62.666 -37.5 84.999 -64.5s39 -58.333 50 -94s16.5 -73.5 16.5 -113.5v-19c0 -6.66699 -0.333008 -13.334 -1 -20.001h-362c7.33301 -30 21.166 -52.333 41.499 -67s45.5 -22 75.5 -22c22.667 0 43.5 4.33301 62.5 13s38.167 22.667 57.5 42l105 -87
c-26 -33.333 -58.167 -60 -96.5 -80s-84.5 -30 -138.5 -30zM397.004 315.001c-3.33301 30 -13.333 53.833 -30 71.5s-38 26.5 -64 26.5c-25.333 0 -46 -8.83301 -62 -26.5s-26.667 -41.5 -32 -71.5h188zM330.004 730.001h165v-143h-165v143zM111.004 730.001h165v-143h-165
v143z" />
    <glyph glyph-name="igrave" unicode="&#xec;" horiz-adv-x="300" 
d="M55 541h190v-541h-190v541zM-52 715l178 57l104 -185h-134z" />
    <glyph glyph-name="iacute" unicode="&#xed;" horiz-adv-x="300" 
d="M55 541h190v-541h-190v541zM177 772l177 -57l-147 -128h-134z" />
    <glyph glyph-name="icircumflex" unicode="&#xee;" horiz-adv-x="300" 
d="M55 541h190v-541h-190v541zM74 752h154l128 -165h-122l-84 61l-84 -61h-120z" />
    <glyph glyph-name="idieresis" unicode="&#xef;" horiz-adv-x="300" 
d="M55 541h190v-541h-190v541zM178 730h165v-143h-165v143zM-41 730h165v-143h-165v143z" />
    <glyph glyph-name="eth" unicode="&#xf0;" horiz-adv-x="656" 
d="M321 -13c-42.667 0 -81.667 6.83301 -117 20.5s-65.666 32.167 -90.999 55.5s-45.166 51 -59.499 83s-21.5 66.333 -21.5 103v2c0 31.333 5.66699 60.833 17 88.5s27.333 51.667 48 72s45.667 36.333 75 48s62 17.5 98 17.5c21.333 0 41.166 -2.33301 59.499 -7
s34.5 -11.334 48.5 -20.001l-80 107l-115 -44l-65 89l117 40l-64 88h202l21 -30l99 37l64 -89l-103 -35l64 -90c17.333 -25.333 32.166 -48.666 44.499 -69.999s22.333 -42.333 30 -63s13.334 -41.334 17.001 -62.001s5.5 -43 5.5 -67v-2c0 -38 -6.83301 -73.5 -20.5 -106.5
s-33.334 -61.667 -59.001 -86s-56.5 -43.666 -92.5 -57.999s-76.667 -21.5 -122 -21.5zM325 146c34 0 60.333 10 79 30s28 44 28 72v2c0 28 -10 52 -30 72s-46.333 30 -79 30c-34 0 -60.5 -9.83301 -79.5 -29.5s-28.5 -43.5 -28.5 -71.5v-2c0 -28 10.167 -52.167 30.5 -72.5
s46.833 -30.5 79.5 -30.5z" />
    <glyph glyph-name="ntilde" unicode="&#xf1;" horiz-adv-x="634" 
d="M51 541h190v-76c17.333 22.667 39 43 65 61s58.333 27 97 27c58 0 103.167 -17.667 135.5 -53s48.5 -84 48.5 -146v-354h-190v293c0 30 -7 52.667 -21 68s-32.333 23 -55 23c-23.333 0 -42.5 -7.66699 -57.5 -23s-22.5 -38 -22.5 -68v-293h-190v541zM111 605
c10.667 50 25.334 87.333 44.001 112s45.334 37 80.001 37c15.333 0 30.5 -2 45.5 -6s29.333 -8.5 43 -13.5l38 -13.5c11.667 -4 21.5 -6 29.5 -6c14 0 24.333 3.83301 31 11.5s13.334 19.167 20.001 34.5l91 -25c-10.667 -50 -25.334 -87.333 -44.001 -112
s-45.334 -37 -80.001 -37c-14.667 0 -29.667 2 -45 6s-29.833 8.5 -43.5 13.5l-38 13.5c-11.667 4 -21.5 6 -29.5 6c-14 0 -24.333 -3.83301 -31 -11.5s-13.334 -19.167 -20.001 -34.5z" />
    <glyph glyph-name="ograve" unicode="&#xf2;" horiz-adv-x="656" 
d="M327 -13c-43.333 0 -83.166 7.50098 -119.499 22.501s-67.833 35.167 -94.5 60.5s-47.334 55 -62.001 89s-22 70.333 -22 109v2c0 38.667 7.5 75.167 22.5 109.5s35.833 64.333 62.5 90s58.334 46 95.001 61s76.667 22.5 120 22.5s83.166 -7.33301 119.499 -22
s67.833 -34.834 94.5 -60.501s47.334 -55.5 62.001 -89.5s22 -70.333 22 -109v-2c0 -38.667 -7.5 -75.167 -22.5 -109.5s-35.833 -64.333 -62.5 -90s-58.334 -46 -95.001 -61s-76.667 -22.5 -120 -22.5zM329 148.001c17.333 0 33 3.16699 47 9.5s25.833 15 35.5 26
s17.167 23.833 22.5 38.5s8 30 8 46v2c0 16.667 -2.83301 32.334 -8.5 47.001s-13.667 27.5 -24 38.5s-22.5 19.833 -36.5 26.5s-29.333 10 -46 10c-17.333 0 -33 -3.16699 -47 -9.5s-25.833 -15 -35.5 -26s-17.167 -23.833 -22.5 -38.5s-8 -30 -8 -46v-2
c0 -16.667 2.83301 -32.334 8.5 -47.001s13.667 -27.5 24 -38.5s22.5 -19.833 36.5 -26.5s29.333 -10 46 -10zM120 717.001l177 57l104 -185h-134z" />
    <glyph glyph-name="oacute" unicode="&#xf3;" horiz-adv-x="656" 
d="M327 -13c-43.333 0 -83.166 7.50098 -119.499 22.501s-67.833 35.167 -94.5 60.5s-47.334 55 -62.001 89s-22 70.333 -22 109v2c0 38.667 7.5 75.167 22.5 109.5s35.833 64.333 62.5 90s58.334 46 95.001 61s76.667 22.5 120 22.5s83.166 -7.33301 119.499 -22
s67.833 -34.834 94.5 -60.501s47.334 -55.5 62.001 -89.5s22 -70.333 22 -109v-2c0 -38.667 -7.5 -75.167 -22.5 -109.5s-35.833 -64.333 -62.5 -90s-58.334 -46 -95.001 -61s-76.667 -22.5 -120 -22.5zM329 148.001c17.333 0 33 3.16699 47 9.5s25.833 15 35.5 26
s17.167 23.833 22.5 38.5s8 30 8 46v2c0 16.667 -2.83301 32.334 -8.5 47.001s-13.667 27.5 -24 38.5s-22.5 19.833 -36.5 26.5s-29.333 10 -46 10c-17.333 0 -33 -3.16699 -47 -9.5s-25.833 -15 -35.5 -26s-17.167 -23.833 -22.5 -38.5s-8 -30 -8 -46v-2
c0 -16.667 2.83301 -32.334 8.5 -47.001s13.667 -27.5 24 -38.5s22.5 -19.833 36.5 -26.5s29.333 -10 46 -10zM359 774.001l177 -57l-147 -128h-134z" />
    <glyph glyph-name="ocircumflex" unicode="&#xf4;" horiz-adv-x="656" 
d="M327 -13c-43.333 0 -83.166 7.50098 -119.499 22.501s-67.833 35.167 -94.5 60.5s-47.334 55 -62.001 89s-22 70.333 -22 109v2c0 38.667 7.5 75.167 22.5 109.5s35.833 64.333 62.5 90s58.334 46 95.001 61s76.667 22.5 120 22.5s83.166 -7.33301 119.499 -22
s67.833 -34.834 94.5 -60.501s47.334 -55.5 62.001 -89.5s22 -70.333 22 -109v-2c0 -38.667 -7.5 -75.167 -22.5 -109.5s-35.833 -64.333 -62.5 -90s-58.334 -46 -95.001 -61s-76.667 -22.5 -120 -22.5zM329 148.001c17.333 0 33 3.16699 47 9.5s25.833 15 35.5 26
s17.167 23.833 22.5 38.5s8 30 8 46v2c0 16.667 -2.83301 32.334 -8.5 47.001s-13.667 27.5 -24 38.5s-22.5 19.833 -36.5 26.5s-29.333 10 -46 10c-17.333 0 -33 -3.16699 -47 -9.5s-25.833 -15 -35.5 -26s-17.167 -23.833 -22.5 -38.5s-8 -30 -8 -46v-2
c0 -16.667 2.83301 -32.334 8.5 -47.001s13.667 -27.5 24 -38.5s22.5 -19.833 36.5 -26.5s29.333 -10 46 -10zM251 750.001h154l128 -165h-122l-84 61l-84 -61h-120z" />
    <glyph glyph-name="otilde" unicode="&#xf5;" horiz-adv-x="656" 
d="M327 -13c-43.333 0 -83.166 7.50098 -119.499 22.501s-67.833 35.167 -94.5 60.5s-47.334 55 -62.001 89s-22 70.333 -22 109v2c0 38.667 7.5 75.167 22.5 109.5s35.833 64.333 62.5 90s58.334 46 95.001 61s76.667 22.5 120 22.5s83.166 -7.33301 119.499 -22
s67.833 -34.834 94.5 -60.501s47.334 -55.5 62.001 -89.5s22 -70.333 22 -109v-2c0 -38.667 -7.5 -75.167 -22.5 -109.5s-35.833 -64.333 -62.5 -90s-58.334 -46 -95.001 -61s-76.667 -22.5 -120 -22.5zM329 148.001c17.333 0 33 3.16699 47 9.5s25.833 15 35.5 26
s17.167 23.833 22.5 38.5s8 30 8 46v2c0 16.667 -2.83301 32.334 -8.5 47.001s-13.667 27.5 -24 38.5s-22.5 19.833 -36.5 26.5s-29.333 10 -46 10c-17.333 0 -33 -3.16699 -47 -9.5s-25.833 -15 -35.5 -26s-17.167 -23.833 -22.5 -38.5s-8 -30 -8 -46v-2
c0 -16.667 2.83301 -32.334 8.5 -47.001s13.667 -27.5 24 -38.5s22.5 -19.833 36.5 -26.5s29.333 -10 46 -10zM117 605.001c10.667 50 25.334 87.333 44.001 112s45.334 37 80.001 37c15.333 0 30.5 -2 45.5 -6s29.333 -8.5 43 -13.5l38 -13.5c11.667 -4 21.5 -6 29.5 -6
c14 0 24.333 3.83301 31 11.5s13.334 19.167 20.001 34.5l91 -25c-10.667 -50 -25.334 -87.333 -44.001 -112s-45.334 -37 -80.001 -37c-14.667 0 -29.667 2 -45 6s-29.833 8.5 -43.5 13.5l-38 13.5c-11.667 4 -21.5 6 -29.5 6c-14 0 -24.333 -3.83301 -31 -11.5
s-13.334 -19.167 -20.001 -34.5z" />
    <glyph glyph-name="odieresis" unicode="&#xf6;" horiz-adv-x="656" 
d="M327 -13c-43.333 0 -83.166 7.50098 -119.499 22.501s-67.833 35.167 -94.5 60.5s-47.334 55 -62.001 89s-22 70.333 -22 109v2c0 38.667 7.5 75.167 22.5 109.5s35.833 64.333 62.5 90s58.334 46 95.001 61s76.667 22.5 120 22.5s83.166 -7.33301 119.499 -22
s67.833 -34.834 94.5 -60.501s47.334 -55.5 62.001 -89.5s22 -70.333 22 -109v-2c0 -38.667 -7.5 -75.167 -22.5 -109.5s-35.833 -64.333 -62.5 -90s-58.334 -46 -95.001 -61s-76.667 -22.5 -120 -22.5zM329 148.001c17.333 0 33 3.16699 47 9.5s25.833 15 35.5 26
s17.167 23.833 22.5 38.5s8 30 8 46v2c0 16.667 -2.83301 32.334 -8.5 47.001s-13.667 27.5 -24 38.5s-22.5 19.833 -36.5 26.5s-29.333 10 -46 10c-17.333 0 -33 -3.16699 -47 -9.5s-25.833 -15 -35.5 -26s-17.167 -23.833 -22.5 -38.5s-8 -30 -8 -46v-2
c0 -16.667 2.83301 -32.334 8.5 -47.001s13.667 -27.5 24 -38.5s22.5 -19.833 36.5 -26.5s29.333 -10 46 -10zM355 730.001h165v-143h-165v143zM136 730.001h165v-143h-165v143z" />
    <glyph glyph-name="oslash" unicode="&#xf8;" horiz-adv-x="656" 
d="M327 -13c-28.667 0 -55.667 3.33203 -81 9.99902s-49 16 -71 28l-28 -30h-133l83 92c-21.333 24.667 -38 52.334 -50 83.001s-18 63.334 -18 98.001v2c0 38.667 7.5 75.167 22.5 109.5s35.833 64.333 62.5 90s58.334 46 95.001 61s76.667 22.5 120 22.5
c28 0 54.833 -3.33301 80.5 -10s49.167 -16 70.5 -28l29 31h133l-34 -37l-28 -31.5l-21 -23.5c21.333 -24.667 38 -52.334 50 -83.001s18 -63.667 18 -99v-2c0 -38.667 -7.5 -75.167 -22.5 -109.5s-35.833 -64.333 -62.5 -90s-58.334 -46 -95.001 -61
s-76.667 -22.5 -120 -22.5zM372 390.999c-12.667 6 -27.666 8.99902 -44.999 8.99902c-18 0 -34.5 -3.5 -49.5 -10.5s-27.833 -16.333 -38.5 -28s-18.834 -25.167 -24.501 -40.5s-8.5 -31.666 -8.5 -48.999v-2c0 -9.33301 0.833008 -18.333 2.5 -27s4.16699 -17 7.5 -25z
M329.001 139.998c18 0 34.499 3.50098 49.499 10.501s27.833 16.333 38.5 28s18.834 25.167 24.501 40.5s8.5 31.666 8.5 48.999v2c0 9.33301 -0.833008 18.333 -2.5 27s-4.16699 17 -7.5 25l-155 -174c14 -5.33301 28.667 -8 44 -8z" />
    <glyph glyph-name="ugrave" unicode="&#xf9;" horiz-adv-x="634" 
d="M231 -12c-58 0 -103.167 17.667 -135.5 53s-48.5 84 -48.5 146v354h190v-293c0 -30 7 -52.667 21 -68s32.667 -23 56 -23c22.667 0 41.5 7.66699 56.5 23s22.5 38 22.5 68v293h190v-541h-190v74c-17.333 -22.667 -39 -42.667 -65 -60s-58.333 -26 -97 -26zM125 715
l177 57l104 -185h-134z" />
    <glyph glyph-name="uacute" unicode="&#xfa;" horiz-adv-x="634" 
d="M231 -12c-58 0 -103.167 17.667 -135.5 53s-48.5 84 -48.5 146v354h190v-293c0 -30 7 -52.667 21 -68s32.667 -23 56 -23c22.667 0 41.5 7.66699 56.5 23s22.5 38 22.5 68v293h190v-541h-190v74c-17.333 -22.667 -39 -42.667 -65 -60s-58.333 -26 -97 -26zM332 772
l177 -57l-147 -128h-134z" />
    <glyph glyph-name="ucircumflex" unicode="&#xfb;" horiz-adv-x="634" 
d="M231 -12c-58 0 -103.167 17.667 -135.5 53s-48.5 84 -48.5 146v354h190v-293c0 -30 7 -52.667 21 -68s32.667 -23 56 -23c22.667 0 41.5 7.66699 56.5 23s22.5 38 22.5 68v293h190v-541h-190v74c-17.333 -22.667 -39 -42.667 -65 -60s-58.333 -26 -97 -26zM240 752h154
l128 -165h-122l-84 61l-84 -61h-120z" />
    <glyph glyph-name="udieresis" unicode="&#xfc;" horiz-adv-x="634" 
d="M231 -12c-58 0 -103.167 17.667 -135.5 53s-48.5 84 -48.5 146v354h190v-293c0 -30 7 -52.667 21 -68s32.667 -23 56 -23c22.667 0 41.5 7.66699 56.5 23s22.5 38 22.5 68v293h190v-541h-190v74c-17.333 -22.667 -39 -42.667 -65 -60s-58.333 -26 -97 -26zM344 730h165
v-143h-165v143zM125 730h165v-143h-165v143z" />
    <glyph glyph-name="yacute" unicode="&#xfd;" horiz-adv-x="626" 
d="M211 -163c-34 0 -65.1699 4.33203 -93.5029 12.999s-55.166 20 -80.499 34l59 133c15.333 -9.33301 30.333 -16.5 45 -21.5s27.334 -7.5 38.001 -7.5c9.33301 0 17.5 1.5 24.5 4.5s13.5 8.83301 19.5 17.5l-212 531h199l108 -326l102 326h195l-198 -528
c-12 -31.333 -24.333 -58.166 -37 -80.499s-27 -40.5 -43 -54.5s-34.167 -24.333 -54.5 -31s-44.166 -10 -71.499 -10zM329.997 771.999l177 -57l-147 -128h-134z" />
    <glyph glyph-name="thorn" unicode="&#xfe;" horiz-adv-x="676" 
d="M51 730l190 -0.00195312v-261c18.667 22.667 40.5 42.334 65.5 59.001s57.833 25 98.5 25c32 0 62.5 -6.5 91.5 -19.5s54.5 -31.5 76.5 -55.5s39.5 -53.333 52.5 -88s19.5 -73.667 19.5 -117v-2c0 -44 -6.5 -83.5 -19.5 -118.5s-30.333 -64.667 -52 -89s-47 -43 -76 -56
s-59.5 -19.5 -91.5 -19.5c-41.333 0 -74.833 7.83301 -100.5 23.5s-47.167 33.834 -64.5 54.501v-226h-190v890zM347 146.998c31.333 0 57.665 11.332 78.998 33.999s32 52.334 32 89.001v2c0 36 -10.667 65.333 -32 88s-47.666 34 -78.999 34
c-15.333 0 -29.666 -3 -42.999 -9s-25 -14.5 -35 -25.5s-17.833 -23.833 -23.5 -38.5s-8.5 -31 -8.5 -49v-2c0 -36 10.667 -65.5 32 -88.5s47.333 -34.5 78 -34.5z" />
    <glyph glyph-name="ydieresis" unicode="&#xff;" horiz-adv-x="626" 
d="M211 -163c-34 0 -65.1699 4.33203 -93.5029 12.999s-55.166 20 -80.499 34l59 133c15.333 -9.33301 30.333 -16.5 45 -21.5s27.334 -7.5 38.001 -7.5c9.33301 0 17.5 1.5 24.5 4.5s13.5 8.83301 19.5 17.5l-212 531h199l108 -326l102 326h195l-198 -528
c-12 -31.333 -24.333 -58.166 -37 -80.499s-27 -40.5 -43 -54.5s-34.167 -24.333 -54.5 -31s-44.166 -10 -71.499 -10zM338.997 729.999h165v-143h-165v143zM119.997 729.999h165v-143h-165v143z" />
    <glyph glyph-name="dotlessi" unicode="&#x131;" horiz-adv-x="300" 
d="M55 541h190v-541h-190v541z" />
    <glyph glyph-name="Lslash" unicode="&#x141;" horiz-adv-x="659" 
d="M107 245l-76 -22v173l76 22v282h193v-224l177 52v-174l-177 -52v-132h338v-170h-531v245z" />
    <glyph glyph-name="lslash" unicode="&#x142;" horiz-adv-x="401" 
d="M106 264l-82 -24v170l82 24v296h189v-242l82 24v-171l-82 -24v-317h-189v264z" />
    <glyph glyph-name="OE" unicode="&#x152;" horiz-adv-x="1078" 
d="M433 0c-62 0 -117.501 8.5 -166.501 25.5s-90.5 40.833 -124.5 71.5s-59.833 67.167 -77.5 109.5s-26.5 88.833 -26.5 139.5v2c0 50.667 9 97.5 27 140.5s44 80.167 78 111.5s75.833 55.833 125.5 73.5s105.834 26.5 168.501 26.5h598v-165h-349v-106h314v-153h-314v-111
h354v-165h-607zM493.999 169v362.001h-66c-57.333 0 -103.5 -15.833 -138.5 -47.5s-52.5 -75.834 -52.5 -132.501v-2c0 -28 4.66699 -53 14 -75s22.333 -40.833 39 -56.5s36.667 -27.667 60 -36s49.333 -12.5 78 -12.5h66z" />
    <glyph glyph-name="oe" unicode="&#x153;" horiz-adv-x="1013" 
d="M320 -13c-40.667 0 -78.8311 7.50098 -114.498 22.501s-66.5 35.167 -92.5 60.5s-46.5 55 -61.5 89s-22.5 70.333 -22.5 109v2c0 38.667 7.5 75.167 22.5 109.5s35.833 64.333 62.5 90s57.834 46 93.501 61s74.5 22.5 116.5 22.5c41.333 0 79 -7.16699 113 -21.5
s63 -34.166 87 -59.499c23.333 25.333 51 45.166 83 59.499s67.333 21.5 106 21.5c46 0 85.833 -8 119.5 -24s61.667 -37.5 84 -64.5s39 -58.333 50 -94s16.5 -73.5 16.5 -113.5c0 -6 -0.166992 -12.333 -0.5 -19s-0.833008 -13.334 -1.5 -20.001h-361
c7.33301 -30 21.166 -52.333 41.499 -67s45.166 -22 74.499 -22c23.333 0 44.5 4.33301 63.5 13s38.167 22.667 57.5 42l105 -87c-26.667 -33.333 -58.834 -60 -96.501 -80s-82.834 -30 -135.501 -30c-44 0 -83.5 7.16699 -118.5 21.5s-64.833 34.166 -89.5 59.499
c-24.667 -25.333 -54.167 -45.166 -88.5 -59.499s-72.166 -21.5 -113.499 -21.5zM805.003 315.001c-3.33301 30 -13.333 53.833 -30 71.5s-38 26.5 -64 26.5c-25.333 0 -46 -8.83301 -62 -26.5s-26.667 -41.5 -32 -71.5h188zM326.003 148.001
c17.333 0 32.835 3.16699 46.502 9.5s25.167 15 34.5 26s16.666 23.833 21.999 38.5s8 30 8 46v2c0 16.667 -2.83301 32.334 -8.5 47.001s-13.5 27.5 -23.5 38.5s-21.833 19.833 -35.5 26.5s-28.834 10 -45.501 10s-31.834 -3.16699 -45.501 -9.5s-25.167 -15 -34.5 -26
s-16.666 -23.833 -21.999 -38.5s-8 -30 -8 -46v-2c0 -16.667 2.83301 -32.334 8.5 -47.001s13.5 -27.5 23.5 -38.5s21.833 -19.833 35.5 -26.5s28.5 -10 44.5 -10z" />
    <glyph glyph-name="Scaron" unicode="&#x160;" horiz-adv-x="652" 
d="M337 -12c-62.667 0 -122.164 9.6748 -178.497 29.0078s-106.166 48.333 -149.499 87l108 129c70 -56 145.667 -84 227 -84c26 0 45.833 4.16699 59.5 12.5s20.5 20.166 20.5 35.499v2c0 7.33301 -1.66699 13.833 -5 19.5s-9.5 11.167 -18.5 16.5s-21 10.5 -36 15.5
s-34.5 10.167 -58.5 15.5c-37.333 8.66699 -72 18.167 -104 28.5s-59.833 23.666 -83.5 39.999s-42.334 36.666 -56.001 60.999s-20.5 54.5 -20.5 90.5v2c0 32.667 6.16699 62.667 18.5 90s30.333 51 54 71s52.167 35.5 85.5 46.5s71 16.5 113 16.5
c60 0 113.5 -7.83301 160.5 -23.5s89.5 -38.834 127.5 -69.501l-97 -137c-32 22.667 -64.833 39.834 -98.5 51.501s-66.167 17.5 -97.5 17.5c-23.333 0 -40.833 -4.33301 -52.5 -13s-17.5 -19.334 -17.5 -32.001v-2c0 -8 1.83301 -15 5.5 -21s10 -11.5 19 -16.5
s21.333 -10 37 -15s35.5 -10.167 59.5 -15.5c40 -8.66699 76.167 -18.834 108.5 -30.501s59.833 -25.834 82.5 -42.501s40 -36.834 52 -60.501s18 -51.834 18 -84.501v-2c0 -36 -6.83301 -68 -20.5 -96s-32.834 -51.833 -57.501 -71.5s-54.334 -34.667 -89.001 -45
s-73.334 -15.5 -116.001 -15.5zM115.003 912.008h122l84 -61l84 61h120l-128 -165h-154z" />
    <glyph glyph-name="scaron" unicode="&#x161;" horiz-adv-x="514" 
d="M266 -12c-46 0 -90.6631 6.49902 -133.996 19.499s-84 33.167 -122 60.5l71 115c31.333 -20.667 63.166 -36.167 95.499 -46.5s62.5 -15.5 90.5 -15.5c32 0 48 9.66699 48 29v2c0 10.667 -7.33301 19 -22 25s-36.334 13 -65.001 21
c-26.667 7.33301 -51.667 15.333 -75 24s-43.666 19.5 -60.999 32.5s-31 28.833 -41 47.5s-15 41.667 -15 69v2c0 28.667 5.5 54.167 16.5 76.5s26.167 41 45.5 56s42.166 26.5 68.499 34.5s55.166 12 86.499 12c40 0 79.333 -5.5 118 -16.5s73.667 -26.5 105 -46.5
l-65 -120c-28 15.333 -56.333 27.5 -85 36.5s-53.667 13.5 -75 13.5c-14.667 0 -25.667 -2.5 -33 -7.5s-11 -11.167 -11 -18.5v-2c0 -10.667 7.5 -19.167 22.5 -25.5s36.833 -13.833 65.5 -22.5c26.667 -7.33301 51.667 -15.5 75 -24.5s43.666 -20 60.999 -33
s31 -28.833 41 -47.5s15 -41 15 -67v-2c0 -30 -5.33301 -56.167 -16 -78.5s-25.667 -41.166 -45 -56.499s-42.5 -26.833 -69.5 -34.5s-57.167 -11.5 -90.5 -11.5zM54.0039 751.999h122l84 -61l84 61h120l-128 -165h-154z" />
    <glyph glyph-name="Ydieresis" unicode="&#x178;" horiz-adv-x="723" 
d="M264 262l-266 438h221l144 -255l145 255h217l-266 -435v-265h-195v262zM389 890h165v-143h-165v143zM170 890h165v-143h-165v143z" />
    <glyph glyph-name="Zcaron" unicode="&#x17d;" horiz-adv-x="698" 
d="M40 141l351 395h-339v164h607v-141l-351 -395h351v-164h-619v141zM149 912h122l84 -61l84 61h120l-128 -165h-154z" />
    <glyph glyph-name="zcaron" unicode="&#x17e;" horiz-adv-x="563" 
d="M32 125l250 265h-241v151h493v-125l-251 -265h251v-151h-502v125zM79 752h122l84 -61l84 61h120l-128 -165h-154z" />
    <glyph glyph-name="florin" unicode="&#x192;" horiz-adv-x="553" 
d="M111 -10c-15.333 0 -29.6699 0.833984 -43.0029 2.50098s-27.666 4.16699 -42.999 7.5v138c19.333 -4 35 -6 47 -6c21.333 0 37 4.83301 47 14.5s17.333 26.5 22 50.5l23 132h-61v144h86l13 65c10.667 58.667 33.5 102 68.5 130s84.833 42 149.5 42
c21.333 0 41.5 -1.16699 60.5 -3.5s35.5 -5.5 49.5 -9.5v-140c-24 6 -46.333 9 -67 9c-23.333 0 -41.166 -4.83301 -53.499 -14.5s-20.5 -25.834 -24.5 -48.501l-5 -30h114v-144h-140l-28 -157c-6 -33.333 -14.333 -61.5 -25 -84.5s-24.667 -41.833 -42 -56.5
s-38.166 -25.167 -62.499 -31.5s-52.833 -9.5 -85.5 -9.5z" />
    <glyph glyph-name="circumflex" unicode="&#x2c6;" 
d="M173 752h154l128 -165h-122l-84 61l-84 -61h-120z" />
    <glyph glyph-name="caron" unicode="&#x2c7;" 
d="M45 752h122l84 -61l84 61h120l-128 -165h-154z" />
    <glyph glyph-name="breve" unicode="&#x2d8;" 
d="M250 585c-56 0 -101.667 14.5 -137 43.5s-55.333 70.167 -60 123.5h111c6 -17.333 15.5 -31.333 28.5 -42s32.167 -16 57.5 -16s44.5 5.33301 57.5 16s22.5 24.667 28.5 42h111c-4.66699 -53.333 -24.667 -94.5 -60 -123.5s-81 -43.5 -137 -43.5z" />
    <glyph glyph-name="dotaccent" unicode="&#x2d9;" 
d="M165 730h170v-143h-170v143z" />
    <glyph glyph-name="ring" unicode="&#x2da;" 
d="M250 591c-17.333 0 -34 3.5 -50 10.5s-30.167 16.167 -42.5 27.5s-22.166 24.833 -29.499 40.5s-11 31.834 -11 48.501v2c0 17.333 3.66699 33.666 11 48.999s17.166 28.666 29.499 39.999s26.5 20.333 42.5 27s32.667 10 50 10s34 -3.33301 50 -10
s30.167 -15.667 42.5 -27s22.166 -24.666 29.499 -39.999s11 -31.666 11 -48.999v-2c0 -16.667 -3.66699 -32.834 -11 -48.501s-17.166 -29.167 -29.499 -40.5s-26.5 -20.5 -42.5 -27.5s-32.667 -10.5 -50 -10.5zM250 652c18.667 0 34.5 6.5 47.5 19.5s19.5 28.5 19.5 46.5
v2c0 17.333 -6.5 32.5 -19.5 45.5s-28.833 19.5 -47.5 19.5s-34.5 -6.5 -47.5 -19.5s-19.5 -28.167 -19.5 -45.5v-2c0 -18 6.5 -33.5 19.5 -46.5s28.833 -19.5 47.5 -19.5z" />
    <glyph glyph-name="ogonek" unicode="&#x2db;" 
d="M381 -164c-72.667 -7.33301 -128.001 -1.50195 -166.001 17.498s-57 48.5 -57 88.5c0 10.667 1.5 21.834 4.5 33.501s7.83301 23.167 14.5 34.5h122c-3.33301 -12 -5 -23.333 -5 -34c0 -17.333 6.83301 -31.166 20.5 -41.499s35.834 -15.833 66.501 -16.5v-82z" />
    <glyph glyph-name="tilde" unicode="&#x2dc;" 
d="M39 605c10.667 50 25.334 87.333 44.001 112s45.334 37 80.001 37c15.333 0 30.5 -2 45.5 -6s29.333 -8.5 43 -13.5l38 -13.5c11.667 -4 21.5 -6 29.5 -6c14 0 24.333 3.83301 31 11.5s13.334 19.167 20.001 34.5l91 -25c-10.667 -50 -25.334 -87.333 -44.001 -112
s-45.334 -37 -80.001 -37c-14.667 0 -29.667 2 -45 6s-29.833 8.5 -43.5 13.5l-38 13.5c-11.667 4 -21.5 6 -29.5 6c-14 0 -24.333 -3.83301 -31 -11.5s-13.334 -19.167 -20.001 -34.5z" />
    <glyph glyph-name="hungarumlaut" unicode="&#x2dd;" 
d="M129 772l156 -54l30 54l166 -57l-143 -127h-123l59 108l-120 -108h-124z" />
    <glyph glyph-name="pi" unicode="&#x3c0;" horiz-adv-x="830" 
d="M414 -14c-50.667 0 -98 9.66699 -142 29s-82.167 45.5 -114.5 78.5s-57.833 71.333 -76.5 115s-28 90.167 -28 139.5v2c0 49.333 9.33301 96 28 140s44.334 82.667 77.001 116s71.167 59.666 115.5 78.999s91.833 29 142.5 29s98 -9.66699 142 -29
s82.167 -45.5 114.5 -78.5s57.833 -71.333 76.5 -115s28 -90.167 28 -139.5v-2c0 -49.333 -9.33301 -96 -28 -140s-44.334 -82.667 -77.001 -116s-71.167 -59.666 -115.5 -78.999s-91.833 -29 -142.5 -29zM414 26c46 0 88.501 8.5 127.501 25.5s72.833 40.333 101.5 70
s51.167 64.167 67.5 103.5s24.5 81 24.5 125v2c0 44 -8 85.667 -24 125s-38.333 73.5 -67 102.5s-62.5 52 -101.5 69s-81.167 25.5 -126.5 25.5c-46 0 -88.5 -8.5 -127.5 -25.5s-72.833 -40.333 -101.5 -70s-51.167 -64.167 -67.5 -103.5s-24.5 -81 -24.5 -125v-2
c0 -44 8.16699 -85.667 24.5 -125s38.666 -73.5 66.999 -102.5s62 -52 101 -69s81.167 -25.5 126.5 -25.5zM273.001 549l164.999 -0.000976562c49.333 0 88.5 -11.833 117.5 -35.5s43.5 -57.167 43.5 -100.5v-2c0 -22 -4.16699 -41.667 -12.5 -59
s-19.833 -31.666 -34.5 -42.999s-32.167 -20 -52.5 -26s-42.166 -9 -65.499 -9h-53v-110h-108v385zM430 357.999c19.333 0 34.333 4.33301 45 13s16 20.667 16 36v2c0 16.667 -5.33301 29.167 -16 37.5s-25.667 12.5 -45 12.5h-49v-101h49z" />
    <glyph glyph-name="endash" unicode="&#x2013;" horiz-adv-x="528" 
d="M40 394h448v-163h-448v163z" />
    <glyph glyph-name="emdash" unicode="&#x2014;" horiz-adv-x="898" 
d="M40 394h818v-163h-818v163z" />
    <glyph glyph-name="quoteleft" unicode="&#x2018;" horiz-adv-x="284" 
d="M40 502c0 37.333 4.83301 68.665 14.5 93.998s23.334 45.833 41.001 61.5s39.167 27.334 64.5 35.001s53.666 11.834 84.999 12.501l16 -73c-34 -4 -59.5 -13.833 -76.5 -29.5s-24.833 -37.167 -23.5 -64.5h76v-195h-197v159z" />
    <glyph glyph-name="quoteright" unicode="&#x2019;" horiz-adv-x="284" 
d="M23 411c34 3.33301 59.5 13.001 76.5 29.001s24.833 37.667 23.5 65h-76v195h197v-159c0 -36.667 -4.83301 -67.834 -14.5 -93.501s-23.334 -46.334 -41.001 -62.001s-39.167 -27.167 -64.5 -34.5s-53.666 -11.666 -84.999 -12.999z" />
    <glyph glyph-name="quotesinglbase" unicode="&#x201a;" horiz-adv-x="284" 
d="M20 -94c68.667 8 101.999 39.334 99.999 94.001h-77v195h198v-159c0 -37.333 -4.83301 -68.666 -14.5 -93.999s-23.5 -45.833 -41.5 -61.5s-39.667 -27.334 -65 -35.001s-53.666 -11.834 -84.999 -12.501z" />
    <glyph glyph-name="quotedblleft" unicode="&#x201c;" horiz-adv-x="547" 
d="M305 502c0 36 4.83398 66.667 14.501 92s23.167 46 40.5 62s38.666 28 63.999 36s53.333 12.333 84 13l16 -73c-67.333 -8 -100 -39.333 -98 -94h74v-195h-195v159zM40.001 502c0 36 4.66699 66.667 14 92s22.833 46 40.5 62s39 28 64 36s53.167 12.333 84.5 13l15 -73
c-68 -8 -100.333 -39.333 -97 -94h74v-195h-195v159z" />
    <glyph glyph-name="quotedblright" unicode="&#x201d;" horiz-adv-x="547" 
d="M289 411c67.333 7.33301 100.001 38.666 98.001 93.999h-75v195h195v-159c0 -36.667 -4.66699 -67.667 -14 -93s-22.833 -46 -40.5 -62s-38.834 -27.667 -63.501 -35s-52.667 -11.666 -84 -12.999zM23.001 411c67.333 7.33301 100 38.666 98 93.999h-74v195h195v-159
c0 -36.667 -4.66699 -67.667 -14 -93s-22.833 -46 -40.5 -62s-39 -27.667 -64 -35s-53.167 -11.666 -84.5 -12.999z" />
    <glyph glyph-name="quotedblbase" unicode="&#x201e;" horiz-adv-x="546" 
d="M286 -94c68 8 100.333 39.334 97 94.001h-74v195h195v-159c0 -36.667 -4.66699 -67.667 -14 -93s-22.833 -46 -40.5 -62s-39 -27.833 -64 -35.5s-53.167 -11.834 -84.5 -12.501zM20 -93.999c68 8 100.333 39.334 97 94.001h-74v195h195v-159
c0 -36.667 -4.66699 -67.667 -14 -93s-22.833 -46 -40.5 -62s-39 -27.833 -64 -35.5s-53.167 -11.834 -84.5 -12.501z" />
    <glyph glyph-name="dagger" unicode="&#x2020;" horiz-adv-x="410" 
d="M165 493l-125 -13v104l124 -13l-15 129h112l-15 -129l124 13v-104l-125 13l10 -270h-100z" />
    <glyph glyph-name="daggerdbl" unicode="&#x2021;" horiz-adv-x="430" 
d="M174 129l-124 -13v104l126 -13l-13 143l13 143l-126 -13v104l124 -13l-15 129h112l-15 -129l124 13v-104l-126 13l13 -143l-13 -143l126 13v-104l-124 13l15 -129h-112z" />
    <glyph glyph-name="bullet" unicode="&#x2022;" 
d="M250 183c-23.333 0 -45.166 4.33301 -65.499 13s-38.166 20.667 -53.499 36s-27.5 33.166 -36.5 53.499s-13.5 42.166 -13.5 65.499v2c0 23.333 4.5 45.166 13.5 65.499s21.167 38.166 36.5 53.499s33.166 27.333 53.499 36s42.166 13 65.499 13
s45.166 -4.33301 65.499 -13s38.166 -20.667 53.499 -36s27.5 -33.166 36.5 -53.499s13.5 -42.166 13.5 -65.499v-2c0 -23.333 -4.5 -45.166 -13.5 -65.499s-21.167 -38.166 -36.5 -53.499s-33.166 -27.333 -53.499 -36s-42.166 -13 -65.499 -13z" />
    <glyph glyph-name="ellipsis" unicode="&#x2026;" horiz-adv-x="840" 
d="M603 192h194v-192h-194v192zM323 192h194v-192h-194v192zM43 192h194v-192h-194v192z" />
    <glyph glyph-name="perthousand" unicode="&#x2030;" horiz-adv-x="1295" 
d="M215 333c-26.667 0 -51.167 4.83301 -73.5 14.5s-41.333 23 -57 40s-27.834 36.833 -36.501 59.5s-13 47 -13 73v2c0 26 4.33301 50.333 13 73s20.834 42.5 36.501 59.5s34.667 30.5 57 40.5s47.166 15 74.499 15s52 -5 74 -15s40.833 -23.5 56.5 -40.5
s27.834 -36.833 36.501 -59.5s13 -46.667 13 -72v-2c0 -26 -4.33301 -50.333 -13 -73s-21 -42.5 -37 -59.5s-35 -30.5 -57 -40.5s-46.667 -15 -74 -15zM652 700h135l-540 -700h-135zM1079 -10c-26.667 0 -51.167 5 -73.5 15s-41.333 23.5 -57 40.5
s-27.834 36.833 -36.501 59.5s-13 46.667 -13 72v2c0 26 4.33301 50.333 13 73s20.834 42.5 36.501 59.5s34.667 30.5 57 40.5s47.166 15 74.499 15s52 -4.83301 74 -14.5s40.833 -23 56.5 -40s27.834 -36.833 36.501 -59.5s13 -47 13 -73v-2
c0 -25.333 -4.33301 -49.5 -13 -72.5s-21 -43 -37 -60s-35 -30.5 -57 -40.5s-46.667 -15 -74 -15zM683 -10c-26.667 0 -51.167 5 -73.5 15s-41.333 23.5 -57 40.5s-27.834 36.833 -36.501 59.5s-13 46.667 -13 72v2c0 26 4.33301 50.333 13 73s20.834 42.5 36.501 59.5
s34.667 30.5 57 40.5s47.166 15 74.499 15s52 -4.83301 74 -14.5s40.833 -23 56.5 -40s27.834 -36.833 36.501 -59.5s13 -47 13 -73v-2c0 -25.333 -4.33301 -49.5 -13 -72.5s-21 -43 -37 -60s-35 -30.5 -57 -40.5s-46.667 -15 -74 -15zM216 443
c17.333 0 31.333 7.33398 42 22.001s16 33 16 55v2c0 22 -5.5 40.5 -16.5 55.5s-25.167 22.5 -42.5 22.5s-31.333 -7.33301 -42 -22s-16 -33 -16 -55v-2c0 -22.667 5.66699 -41.334 17 -56.001s25.333 -22 42 -22zM1080 100.001c17.333 0 31.333 7.33203 42 21.999
s16 33 16 55v2c0 22.667 -5.5 41.334 -16.5 56.001s-25.167 22 -42.5 22c-18 0 -32.167 -7.16699 -42.5 -21.5s-15.5 -32.833 -15.5 -55.5v-2c0 -22 5.66699 -40.5 17 -55.5s25.333 -22.5 42 -22.5zM684 100c17.333 0 31.333 7.33203 42 21.999s16 33 16 55v2
c0 22.667 -5.5 41.334 -16.5 56.001s-25.167 22 -42.5 22c-18 0 -32.167 -7.16699 -42.5 -21.5s-15.5 -32.833 -15.5 -55.5v-2c0 -22 5.66699 -40.5 17 -55.5s25.333 -22.5 42 -22.5z" />
    <glyph glyph-name="guilsinglleft" unicode="&#x2039;" horiz-adv-x="357" 
d="M30 244v48l160 214l137 -67l-130 -171l130 -170l-137 -68z" />
    <glyph glyph-name="guilsinglright" unicode="&#x203a;" horiz-adv-x="357" 
d="M30 97l130 171l-130 170l137 68l160 -214v-48l-160 -214z" />
    <glyph glyph-name="fraction" unicode="&#x2044;" horiz-adv-x="501" 
d="M393 758h158l-465 -856h-159z" />
    <glyph glyph-name="trademark" unicode="&#x2122;" horiz-adv-x="695" 
d="M334 700h91l73 -119l74 119h90v-308h-85v180l-78 -122h-3l-78 122v-180h-84v308zM108 625h-92v75h270v-75h-92v-233h-86v233z" />
    <glyph glyph-name="Omega" unicode="&#x2126;" horiz-adv-x="808" 
d="M489 389h-64.002v146h64v15c0 62.667 15.333 109.334 46 140.001c16 16.667 35.5 28.667 58.5 36s50.5 11 82.5 11c29.333 0 53.5 -1.33301 72.5 -4s36.167 -6.33398 51.5 -11.001v-134c-11.333 3.33301 -22.666 6 -33.999 8s-23.666 3 -36.999 3c-36 0 -54 -17 -54 -51
v-13h124v-146h-121v-389h-189v389zM84.998 389h-63.0029v149h63v12c0 62.667 15.333 109.334 46 140.001c16.667 16.667 36.334 28.667 59.001 36s50 11 82 11c29.333 0 53.5 -1.33301 72.5 -4s36.167 -6.33398 51.5 -11.001v-134c-11.333 3.33301 -22.666 6 -33.999 8
s-23.666 3 -36.999 3c-36 0 -54 -17 -54 -51v-13h124v-146h-121v-389h-189v389z" />
    <glyph glyph-name="radical" unicode="&#x221a;" horiz-adv-x="1108" 
d="M489 389h-64.002v146h64v15c0 62.667 15.333 109.334 46 140.001c16 16.667 35.5 28.667 58.5 36s50.5 11 82.5 11c29.333 0 53.5 -1.33301 72.5 -4s36.167 -6.33398 51.5 -11.001v-134c-11.333 3.33301 -22.666 6 -33.999 8s-23.666 3 -36.999 3c-36 0 -54 -17 -54 -51
v-13h124v-146h-121v-389h-189v389zM84.998 389h-63.0029v149h63v12c0 62.667 15.333 109.334 46 140.001c16.667 16.667 36.334 28.667 59.001 36s50 11 82 11c29.333 0 53.5 -1.33301 72.5 -4s36.167 -6.33398 51.5 -11.001v-134c-11.333 3.33301 -22.666 6 -33.999 8
s-23.666 3 -36.999 3c-36 0 -54 -17 -54 -51v-13h124v-146h-121v-389h-189v389zM862.995 730h190v-730h-190v730z" />
    <glyph glyph-name="approxequal" unicode="&#x2248;" horiz-adv-x="1108" 
d="M859 730h198v-140h-198v140zM489 389h-64.002v146h64v15c0 62.667 15.333 109.334 46 140.001c16 16.667 35.5 28.667 58.5 36s50.5 11 82.5 11c29.333 0 53.5 -1.33301 72.5 -4s36.167 -6.33398 51.5 -11.001v-134c-11.333 3.33301 -22.666 6 -33.999 8
s-23.666 3 -36.999 3c-36 0 -54 -17 -54 -51v-13h124v-146h-121v-389h-189v389zM84.998 389h-63.0029v149h63v12c0 62.667 15.333 109.334 46 140.001c16.667 16.667 36.334 28.667 59.001 36s50 11 82 11c29.333 0 53.5 -1.33301 72.5 -4s36.167 -6.33398 51.5 -11.001
v-134c-11.333 3.33301 -22.666 6 -33.999 8s-23.666 3 -36.999 3c-36 0 -54 -17 -54 -51v-13h124v-146h-121v-389h-189v389zM862.995 541h190v-541h-190v541z" />
    <glyph glyph-name="fi" unicode="&#xfb01;" horiz-adv-x="704" 
d="M455 730h198v-140h-198v140zM85 550c0 62.667 15.3301 109.334 45.9971 140.001c16.667 16.667 36.334 28.667 59.001 36s50 11 82 11c29.333 0 53.5 -1.33301 72.5 -4s36.167 -6.33398 51.5 -11.001v-134c-11.333 3.33301 -22.666 6 -33.999 8s-23.666 3 -36.999 3
c-36 0 -54 -17 -54 -51v-13h124v-146h-121v-389h-189v389h-63v149h63v12zM458.997 541h190v-541h-190v541z" />
    <glyph glyph-name="fl" unicode="&#xfb02;" horiz-adv-x="704" 
d="M85 389h-63.0029v149h63v12c0 62.667 15.333 109.334 46 140.001c16.667 16.667 36.334 28.667 59.001 36s50 11 82 11c29.333 0 53.5 -1.33301 72.5 -4s36.167 -6.33398 51.5 -11.001v-134c-11.333 3.33301 -22.666 6 -33.999 8s-23.666 3 -36.999 3
c-36 0 -54 -17 -54 -51v-13h124v-146h-121v-389h-189v389zM458.997 730h190v-730h-190v730z" />
    <glyph glyph-name=".null" horiz-adv-x="0" 
 />
    <glyph glyph-name="NUL" horiz-adv-x="0" 
 />
    <glyph glyph-name="apple" horiz-adv-x="967" 
d="M101 0v750h767v-750h-767zM853 -104l-3 20l-10 -21h-2l-10 21l-3 -20h-6l6 34h1l13 -26l13 26h1l6 -34h-6zM806 -87c0 -5.33301 -1.49902 -9.66602 -4.49902 -12.999s-7.16699 -5 -12.5 -5s-9.5 1.66699 -12.5 5s-4.5 7.33301 -4.5 12
c0 5.33301 1.66699 9.66602 5 12.999s7.66602 5 12.999 5c4.66699 0 8.5 -1.66699 11.5 -5s4.5 -7.33301 4.5 -12zM757.001 -102c-2 -2 -5.33398 -3 -10.001 -3c-12 0 -18 5.66699 -18 17c0 5.33301 1.66699 9.66602 5 12.999s7.66602 5 12.999 5
c4.66699 0 8.33398 -1 11.001 -3l-2 -5c-2 2 -5 3 -9 3c-3.33301 0 -6.16602 -1.16699 -8.49902 -3.5s-3.5 -5.16602 -3.5 -8.49902c0 -8.66699 4.33301 -13 13 -13c2.66699 0 6 1.33301 10 4zM689 -90v-14h-6v14l-14 19l6 1l11 -15l9 14h7zM650 -104v15h-16v-15h-6v33h6
v-13h16v13h6v-33h-6zM612 -82c0 -8 -5.66699 -11.999 -17 -11.999v-10h-6v33c9.33301 1.33301 15.5 0.666016 18.5 -2.00098s4.5 -5.66699 4.5 -9zM570 -103.999l-4 8h-14l-3 -8h-6l15 34h2l16 -34h-6zM527 -103.999l-8 10.999h-5v-11h-6v33
c9.33301 1.33301 15.5 0.833008 18.5 -1.5s4.5 -5.16602 4.5 -8.49902c0 -4.66699 -2.33301 -8 -7 -10l10 -13h-7zM491 -101c-4 -2.66699 -8.33301 -3.99902 -13 -3.99902c-5.33301 0 -9.66602 1.5 -12.999 4.5s-5 7.16699 -5 12.5s1.83301 9.66602 5.5 12.999
s8.16699 5 13.5 5c4 0 8 -1.33301 12 -4l-2 -5c-2.66699 2.66699 -6.33398 4 -11.001 4c-8 0 -12 -4.33301 -12 -13c0 -8 4.33301 -12 13 -12c1.33301 0 3.33301 0.666992 6 2v7h-9v5h15v-15zM447 -86.999c0 -5.33301 -1.49902 -9.66602 -4.49902 -12.999
s-7.16699 -5 -12.5 -5s-9.5 1.66699 -12.5 5s-4.5 7.33301 -4.5 12c0 5.33301 1.66699 9.66602 5 12.999s7.66602 5 12.999 5c4.66699 0 8.5 -1.66699 11.5 -5s4.5 -7.33301 4.5 -12zM400.001 -81.999c0 -8 -5.66699 -11.999 -17 -11.999v-10h-6v33
c9.33301 1.33301 15.5 0.666016 18.5 -2.00098s4.5 -5.66699 4.5 -9zM351.001 -89.998v-14h-6v14l-14 19l6 1l11 -15l9 14h7zM323.001 -75.998h-12v-28h-6v28h-12v5h30v-5zM255.001 -104.998h-1l-11 23l-10 -23h-1l-12 34l6 1l7 -23l10 23h1l10 -23l7 22h6z
M199.001 -104.998h-1l-11 23l-10 -23h-1l-12 34l6 1l7 -23l10 23h1l10 -23l7 22h6zM143.001 -104.998h-1l-11 23l-10 -23h-1l-12 34l6 1l7 -23l10 23h1l10 -23l7 22h6zM716.001 -100.998c0 -2.66699 -1.33301 -4 -4 -4s-4 1.33301 -4 4s1.33301 4 4 4s4 -1.33301 4 -4z
M284.001 -100.998c0 -2.66699 -1.33301 -4 -4 -4s-4 1.33301 -4 4s1.33301 4 4 4s4 -1.33301 4 -4zM559.001 686.002l-0.00195312 5.00098c0 3.33301 -0.333008 5.66602 -1 6.99902c-1.33301 -0.666992 -7 -1 -17 -1s-16 0.333008 -18 1v-7c-0.666992 -2 -1 -3.66699 -1 -5
h2c0.666992 2 1.66699 3.66699 3 5c2 2.66699 4.33301 4 7 4c2 0 3 -1 3 -3v-23c0 -2.66699 -0.666992 -4.33398 -2 -5.00098h-3v-2h17v2h-2c-2 0.666992 -3 2.33398 -3 5.00098v23c0 2 1 3 3 3c2.66699 0 5.33398 -1.33301 8.00098 -4
c0.666992 -1.33301 1.33398 -3 2.00098 -5h2zM503.999 664.003h-2.99902c-2 0.666992 -3 2.33398 -3 5.00098v21c0 2.66699 1 4.33398 3 5.00098h3v2h-18v-1v-1h3c1.33301 -0.666992 2 -2.33398 2 -5.00098v-9h-17v9c0 2.66699 1 4.33398 3 5.00098h2v1v1h-17v-2h3
c1.33301 -0.666992 2 -2.33398 2 -5.00098v-21c0 -2 -0.666992 -3.33301 -2 -4s-2.33301 -1 -3 -1v-2h17v2c-0.666992 0 -1.33398 0.333008 -2.00098 1c-2 0.666992 -3 2 -3 4v10h17v-10c0 -2.66699 -0.666992 -4.33398 -2 -5.00098h-3v-2h18v2zM439 664.003
l-1.99805 -0.00292969c-2 0.666992 -3 2.33398 -3 5.00098v21c0 2.66699 1 4.33398 3 5.00098h2v2h-29l-2 -10l2 -1l2 4c2 2.66699 4.33301 4 7 4h4c2.66699 0 4 -1 4 -3v-10h-4c-2.66699 0 -4.33398 1 -5.00098 3c-0.666992 0.666992 -1 1.33398 -1 2.00098h-2v-13h2
c0 1.33301 0.333008 2.33301 1 3c0.666992 2 2.33398 3 5.00098 3h4v-11c0 -2 -1.33301 -3 -4 -3h-4c-2.66699 0 -5.33398 1.66699 -8.00098 5c-0.666992 0.666992 -1.33398 2 -2.00098 4l-2 -1l2 -11h30v2zM827.002 624h-685v-6h685v6zM696.002 540
c0 10 -3.83301 18.833 -11.5 26.5s-16.167 11.5 -25.5 11.5c-4.66699 0 -9.66699 -1.66699 -15 -5s-8 -9 -8 -17c0 -10.667 3.83301 -19.667 11.5 -27s16.167 -11 25.5 -11c4.66699 0 9.66699 1.66699 15 5s8 9 8 17zM589.002 537c0 8 -4.66895 13.6689 -14.002 17.002
c3.33301 2 5 5 5 9c0 3.33301 -1.66699 6.66602 -5 9.99902s-8.66602 5 -15.999 5c-8.66699 0 -13 -3.66699 -13 -11c0 -4 1.66699 -6 5 -6c2.66699 0 4 1 4 3s-0.5 3.16699 -1.5 3.5s-1.5 1.16602 -1.5 2.49902c0 3.33301 2.33301 5 7 5c6.66699 0 10 -4 10 -12
c0 -2.66699 -0.666992 -4.66699 -2 -6c-10.667 1.33301 -16 -0.666992 -16 -6c0 -4 2.66699 -6 8 -6c4 0 7.66699 1.66699 11 5c4 -2.66699 6 -7.66699 6 -15c0 -9.33301 -4 -14 -12 -14s-12 3 -12 9c0 2 1 3 3 3c0.666992 0 1.33398 -0.333008 2.00098 -1s1.66699 -1 3 -1
c2.66699 0 4 1.66699 4 5s-2.33301 5 -7 5c-6 0 -9 -3.33301 -9 -10c0 -8.66699 5.33301 -13 16 -13c8.66699 0 15 1.83301 19 5.5s6 8.16699 6 13.5zM295 537.002c0 8 -4.66895 13.6689 -14.002 17.002c3.33301 2 5 5 5 9c0 3.33301 -1.66699 6.66602 -5 9.99902
s-8.66602 5 -15.999 5c-8.66699 0 -13 -3.66699 -13 -11c0 -4 1.66699 -6 5 -6c2.66699 0 4 1 4 3s-0.5 3.16699 -1.5 3.5s-1.5 1.16602 -1.5 2.49902c0 3.33301 2.33301 5 7 5c6.66699 0 10 -4 10 -12c0 -2.66699 -0.666992 -4.66699 -2 -6
c-10.667 1.33301 -16 -0.666992 -16 -6c0 -4 2.66699 -6 8 -6c4 0 7.66699 1.66699 11 5c4 -2.66699 6 -7.66699 6 -15c0 -9.33301 -4 -14 -12 -14s-12 3 -12 9c0 2 1 3 3 3c0.666992 0 1.33398 -0.333008 2.00098 -1s1.66699 -1 3 -1c2.66699 0 4 1.66699 4 5
s-2.33301 5 -7 5c-6 0 -9 -3.33301 -9 -10c0 -8.66699 5.33301 -13 16 -13c8.66699 0 15 1.83301 19 5.5s6 8.16699 6 13.5zM819.998 522.004c-1.33301 0 -2.66699 0.333008 -4 1c-3.33301 1.33301 -5.33301 3.66602 -6 6.99902l-7 35c-0.666992 4 0.333008 6.33301 3 7
c1.33301 0.666992 2.66602 1 3.99902 1l-1 3h-28l1 -3c1.33301 0 2.66602 -0.333008 3.99902 -1c2.66699 -1.33301 4.33398 -3.66602 5.00098 -6.99902l3 -15h-24l-3 15c-0.666992 4 0.333008 6.33301 3 7c1.33301 0.666992 2.66602 1 3.99902 1l-1 3h-29l1 -3
c1.33301 0 2.66602 -0.333008 3.99902 -1c3.33301 -1.33301 5.33301 -3.66602 6 -6.99902l7 -35c0.666992 -4 -0.333008 -6.33301 -3 -7c-1.33301 -0.666992 -2.66602 -1 -3.99902 -1l1 -3h29l-1 3c-1.33301 0 -2.66602 0.333008 -3.99902 1
c-3.33301 1.33301 -5.33301 3.66602 -6 6.99902l-3 16h24l3 -16c0.666992 -4 -0.333008 -6.33301 -3 -7c-1.33301 -0.666992 -2.66602 -1 -3.99902 -1l1 -3h29zM496.997 522.004c-1.33301 0 -2.66602 0.333008 -3.99902 1c-3.33301 1.33301 -5.33301 3.66602 -6 6.99902
l-7 35c-0.666992 4 0.333008 6.33301 3 7c1.33301 0.666992 2.66602 1 3.99902 1l-1 3h-45c0.666992 -1.33301 0.666992 -4.66602 0 -9.99902v-7h4c0 2.66699 0.333008 5 1 7c2.66699 4 6.66699 6 12 6h4c3.33301 0 5.33301 -2 6 -6l3 -16h-4c-4 0 -7 1.66699 -9 5
c-1.33301 0.666992 -2.33301 2 -3 4h-3l5 -23h3c0 2 0.333008 4 1 6c1.33301 3.33301 3.66602 5 6.99902 5h4l3 -17c0.666992 -4 -0.333008 -6.33301 -3 -7c-1.33301 -0.666992 -2.66602 -1 -3.99902 -1l1 -3h29zM201.997 522.004c-1.33301 0 -2.66699 0.334961 -4 1.00195
c-3.33301 1.33301 -5.33301 3.66602 -6 6.99902l-7 35c-0.666992 4 0.333008 6.33301 3 7c1.33301 0.666992 2.66602 1 3.99902 1l-1 3h-27c-13.333 0 -20 -5 -20 -15c0 -4 1.83301 -7.33301 5.5 -10s8.16699 -4.33398 13.5 -5.00098l-9 -16c-2 -4 -5 -6.33301 -9 -7
c-1.33301 -0.666992 -3 -1 -5 -1l1 -3h19l12 23c1.33301 2 3 3 5 3l3 -15c0.666992 -4 -0.333008 -6.33301 -3 -7c-1.33301 -0.666992 -2.66602 -1 -3.99902 -1l1 -3h29zM399.996 521.006c0 1.33301 -1.00195 3.00098 -3.00195 5.00098s-5.33301 3.33301 -10 4
c-2.66699 2 -4.16699 5.5 -4.5 10.5s-1 10.333 -2 16s-3 10.667 -6 15s-8.5 6.5 -16.5 6.5c-3.33301 0 -6.33301 -1.16699 -9 -3.5s-4 -4.5 -4 -6.5c0 -3.33301 1.66699 -5 5 -5c2.66699 0 4 2 4 6s1.66699 6 5 6s5.5 -1.66699 6.5 -5s1.83301 -7.33301 2.5 -12
s1.83398 -9.5 3.50098 -14.5s4.5 -9.5 8.5 -13.5c-7.33301 0 -12.166 -2.16699 -14.499 -6.5s-5.16602 -6.5 -8.49902 -6.5s-5 1.33301 -5 4c0 1.33301 0.333008 2.16602 1 2.49902s1 1.16602 1 2.49902c0 3.33301 -1.66699 5 -5 5s-5 -2.33301 -5 -7
c0 -3.33301 1.66699 -6.16602 5 -8.49902s6.66602 -3.5 9.99902 -3.5c9.33301 0 14.5 2.16699 15.5 6.5s4.16699 6.5 9.5 6.5c2.66699 -4.66699 6.66699 -7 12 -7c2.66699 0 4 1 4 3zM826.994 481.007h-685v-6h685v6zM826.994 440.007h-147v-62h36v28h11v-65h-14v-33h81v33
h-14v65h11v-28h36v62zM647.994 440.007h-81v-34h11l-15 -23l-15 23h10v34h-62v-34h12l37 -46v-19h-14v-33h81v33h-15v20l37 45h14v34zM457.994 341.007h-14v65h14v34h-96c-14.667 0 -26.167 -3.83301 -34.5 -11.5s-12.5 -17.167 -12.5 -28.5s4.16699 -20.833 12.5 -28.5
s19.833 -11.5 34.5 -11.5h30v-19h-15v-33h81v33zM282.994 341.007h-14v65h14v34h-141v-62h41v28h33v-20h-24v-24h24v-21h-33v28h-41v-61h141v33zM826.994 277.007h-685v-6h685v6zM727.994 192.007c0 10 -3.83301 18.833 -11.5 26.5s-16.167 11.5 -25.5 11.5
c-4.66699 0 -9.66699 -1.66699 -15 -5s-8 -9 -8 -17c0 -10.667 3.83301 -19.667 11.5 -27s16.167 -11 25.5 -11c4.66699 0 9.66699 1.66699 15 5s8 9 8 17zM202.994 217.007c-2 3.33301 -4.1709 6.33398 -6.50391 9.00098s-6.16602 4 -11.499 4
c-10 0 -14.667 -7.66699 -14 -23c-2 6.66699 -4.66699 12.167 -8 16.5s-7.66602 6.5 -12.999 6.5c-3.33301 0 -6.16602 -1 -8.49902 -3s-3.5 -5 -3.5 -9l3 -1c0 4 2.66699 6 8 6c6.66699 0 11.834 -3.5 15.501 -10.5s6.5 -14.5 8.5 -22.5c2 -7.33301 1.66699 -12 -1 -14
c-1.33301 -0.666992 -3 -1 -5 -1l1 -4h28l-1 4h-4c-2.66699 1.33301 -4.66699 4.33301 -6 9c-3.33301 11.333 -5 19.666 -5 24.999c0 8.66699 3 13 9 13c3.33301 0 5.83301 -0.833008 7.5 -2.5l4.5 -4.5zM821.99 174.008c-1.33301 0 -2.66602 0.333008 -3.99902 1
c-3.33301 1.33301 -5.33301 3.66602 -6 6.99902l-7 35c-0.666992 4 0.333008 6.33301 3 7c1.33301 0.666992 2.66602 1 3.99902 1l-1 3h-45c0.666992 -1.33301 0.666992 -4.66602 0 -9.99902v-7h4c0 2.66699 0.333008 5 1 7c2.66699 4 6.66699 6 12 6h4
c3.33301 0 5.33301 -2 6 -6l3 -16h-4c-4 0 -7 1.66699 -9 5c-1.33301 0.666992 -2.33301 2 -3 4h-3l5 -23h3c0 2 0.333008 4 1 6c1.33301 3.33301 3.66602 5 6.99902 5h4l3 -17c0.666992 -4 -0.333008 -6.33301 -3 -7c-1.33301 -0.666992 -2.66602 -1 -3.99902 -1l1 -3h29z
M619.99 228.008h-28.999l1 -3c1.33301 0 2.66602 -0.333008 3.99902 -1c3.33301 -1.33301 5.33301 -4 6 -8l5 -21c1.33301 -6.66699 1.66602 -11.667 0.999023 -15s-4.66699 -5 -12 -5c-5.33301 0 -9.66602 2.16699 -12.999 6.5s-5.66602 9.5 -6.99902 15.5l-4 19
c-0.666992 4.66699 0.333008 7.66699 3 9h4v3h-24l1 -3c2 0 3.66699 -0.333008 5 -1c3.33301 -1.33301 5.33301 -4 6 -8l4 -19c1.33301 -5.33301 4 -11.166 8 -17.499s10.667 -9.5 20 -9.5c11.333 0 17.666 2.66699 18.999 8s1.33301 10.666 0 15.999l-5 22
c-1.33301 4.66699 -0.333008 7.66699 3 9h5zM521.991 174.008c-1.33301 0 -2.33301 0.333008 -3 1c-2.66699 2 -4.66699 5 -6 9l-7 32c-0.666992 4 0.333008 6.66699 3 8c1.33301 0.666992 3 1 5 1l-1 3h-14l-29 -42l-5 30c-0.666992 4 0.333008 6.66699 3 8
c1.33301 0.666992 2.66602 1 3.99902 1l-1 3h-21l1 -3c1.33301 0 2.66602 -0.333008 3.99902 -1c2.66699 -2 4.33398 -4.66699 5.00098 -8l8 -45l3 -1l30 44l6 -30c0.666992 -4.66699 0 -7.66699 -2 -9c-1.33301 -0.666992 -2.66602 -1 -3.99902 -1l1 -3h21z
M412.991 175.008h-4c-2.66699 1.33301 -4.66699 4.33301 -6 9l-8 31c-2 6 0.666992 9.33301 8 10l-1 3h-30c-6 0 -11.667 -1.83301 -17 -5.5s-8 -9.16699 -8 -16.5c0 -10.667 3.66699 -19.167 11 -25.5s15.333 -9.5 24 -9.5h32zM305.991 174.008
c-1.33301 0 -2.66699 0.334961 -4 1.00195c-3.33301 1.33301 -5.33301 3.66602 -6 6.99902l-7 35c-0.666992 4 0.333008 6.33301 3 7c1.33301 0.666992 2.66602 1 3.99902 1l-1 3h-27c-13.333 0 -20 -5 -20 -15c0 -4 1.83301 -7.33301 5.5 -10
s8.16699 -4.33398 13.5 -5.00098l-9 -16c-2 -4 -5 -6.33301 -9 -7c-1.33301 -0.666992 -3 -1 -5 -1l1 -3h19l12 23c1.33301 2 3 3 5 3l3 -15c0.666992 -4 -0.333008 -6.33301 -3 -7c-1.33301 -0.666992 -2.66602 -1 -3.99902 -1l1 -3h29zM826.99 133.01h-685v-6h685v6z
M693.99 48.0098c-1.33301 0 -2.33301 0.333008 -3 1c-2 1.33301 -3 2.66602 -3 3.99902v20c0 1.33301 1 2.66602 3 3.99902c0.666992 0.666992 1.66699 1.33398 3 2.00098v2h-10l-24 -26v18c0 2 1 3.66699 3 5c0.666992 0.666992 1.66699 1 3 1v2h-15v-2
c1.33301 0 2.33301 -0.333008 3 -1c2 -1.33301 3 -3 3 -5v-28h3l25 28v-20c0 -1.33301 -0.666992 -2.66602 -2 -3.99902c-1.33301 -0.666992 -2.33301 -1 -3 -1v-2h14v2zM632.99 48.0098l-1.99805 -0.00292969c-2 0.666992 -3 2.33398 -3 5.00098v21
c0 2.66699 1 4.33398 3 5.00098h2v2h-29l-2 -10l2 -1l2 4c2 2.66699 4.33301 4 7 4h4c2.66699 0 4 -1 4 -3v-10h-4c-2.66699 0 -4.33398 1 -5.00098 3c-0.666992 0.666992 -1 1.33398 -1 2.00098h-2v-13h2c0 1.33301 0.333008 2.33301 1 3c0.666992 2 2.33398 3 5.00098 3h4
v-11c0 -2 -1.33301 -3 -4 -3h-4c-2.66699 0 -5.33398 1.66699 -8.00098 5c-0.666992 0.666992 -1.33398 2 -2.00098 4l-2 -1l2 -11h30v2zM567.992 81.0068l-0.00585938 -2.00098c0.666992 0 1.33398 -0.333008 2.00098 -1c0.666992 -1.33301 0.666992 -2.66602 0 -3.99902
l-9 -19l-5 10l4 8c0.666992 2 2 3.66699 4 5c0.666992 0 1.33398 0.333008 2.00098 1v2h-26l1 -2c0.666992 0 1.33398 -0.333008 2.00098 -1c2 -0.666992 3.66699 -2.33398 5 -5.00098l3 -5l-7 -13l-8 18c-0.666992 2 -0.666992 3.66699 0 5
c0.666992 0.666992 1.33398 1 2.00098 1v2h-13v-2c0.666992 0 1.33398 -0.333008 2.00098 -1c2 -1.33301 3.33301 -3 4 -5l13 -27h1c0.666992 -0.666992 1 -0.666992 1 0l8 16l9 -16h1l12 27c1.33301 2.66699 3 4.33398 5 5.00098c0.666992 0.666992 1.33398 1 2.00098 1v2
h-15zM479.986 81.0059h-15.002v-2c0.666992 0 1.33398 -0.333008 2.00098 -1s0.333984 -2 -0.999023 -4l-6 -9l-6 9c-1.33301 2 -1.33301 3.33301 0 4c0.666992 0.666992 1.66699 1 3 1v2h-15v-2c0.666992 0 1.66699 -0.333008 3 -1c2 -0.666992 3.66699 -2 5 -4l8 -12v-8
c0 -2.66699 -0.666992 -4.33398 -2 -5.00098s-2.33301 -1 -3 -1v-2h17v2c-0.666992 0 -1.33398 0.333008 -2.00098 1c-2 0.666992 -3 2.33398 -3 5.00098v8l8 12c1.33301 2 3 3.33301 5 4c0.666992 0.666992 1.33398 1 2.00098 1v2zM424.984 64.0059
c0 5.33301 -1.66699 9.66602 -5 12.999s-8.33301 5 -15 5s-11.667 -1.66699 -15 -5s-5 -7.66602 -5 -12.999s1.66699 -9.83301 5 -13.5s8.33301 -5.5 15 -5.5s11.667 1.83301 15 5.5s5 8.16699 5 13.5zM363.984 48.0059c-0.666992 0 -1.33398 0.332031 -2.00098 0.999023
c-2 0.666992 -3 2 -3 4v20c0 2.66699 1 4.33398 3 5.00098c0.666992 0.666992 1.33398 1 2.00098 1v2h-18c-8.66699 0 -13 -3 -13 -9c0 -3.33301 3 -6.33301 9 -9l-7 -10c-1.33301 -2 -3 -3.33301 -5 -4c-1.33301 -0.666992 -2.33301 -1 -3 -1v-2h11l7 12
c2 2.66699 4.33301 4 7 4v-9c0 -2 -0.666992 -3.33301 -2 -4s-2.33301 -1 -3 -1v-2h17v2zM308.984 48.0049c-1.33301 0 -2.33496 0.334961 -3.00195 1.00195c-2 1.33301 -3 3 -3 5v20c0 2 1 3.33301 3 4c0.666992 0.666992 1.66699 1 3 1v2h-18v-2
c1.33301 0 2.33301 -0.333008 3 -1c2 -0.666992 3 -2 3 -4v-9c-1.33301 0 -2.66602 0.666992 -3.99902 2l-8 8c-1.33301 1.33301 -1.66602 2.33301 -0.999023 3s1.33398 1 2.00098 1v2h-14v-2c0.666992 0 1.66699 -0.333008 3 -1c2 -0.666992 3.66699 -1.66699 5 -3l10 -9
l-13 -13c-0.666992 -0.666992 -2 -1.66699 -4 -3c-1.33301 -0.666992 -2.33301 -1.33398 -3 -2.00098v-2h17v2c-1.33301 0 -2 0.333008 -2 1c-1.33301 0.666992 -1.33301 2 0 4l8 8c1.33301 1.33301 2.66602 2 3.99902 2v-9c0 -2.66699 -1 -4.33398 -3 -5.00098
c-0.666992 -0.666992 -1.66699 -1 -3 -1v-2h18v2zM605.982 -82.9932c0 5.33301 -3.66699 7.66699 -11 7v-13c7.33301 0 11 2 11 6zM524.982 -81.9922c0 5.33301 -3.66699 7.33301 -11 6v-12c7.33301 -0.666992 11 1.33301 11 6zM393.982 -82.9922
c0 5.33301 -3.66699 7.66699 -11 7v-13c7.33301 0 11 2 11 6zM558.982 -79.9912l-5 -12h10zM799.982 -87.9912c0 8.66699 -3.66699 13 -11 13s-11 -4 -11 -12c0 -8.66699 3.66699 -13 11 -13s11 4 11 12zM440.982 -87.9912c0 8.66699 -3.66699 13 -11 13s-11 -4 -11 -12
c0 -8.66699 3.66699 -13 11 -13s11 4 11 12zM170.982 548.009c-5.33301 0 -9.16699 1.66797 -11.5 5.00098s-3.5 6.66602 -3.5 9.99902c0 6 2.66699 9 8 9s8.33301 -1.66699 9 -5l3 -19h-5zM565.981 553.01c-2 -2.66699 -4.33203 -4 -6.99902 -4s-4 0.666992 -4 2
c0 2 1.33301 3 4 3c3.33301 0 5.66602 -0.333008 6.99902 -1zM271.982 553.01c-2 -2.66699 -4.33203 -4 -6.99902 -4s-4 0.666992 -4 2c0 2 1.33301 3 4 3c3.33301 0 5.66602 -0.333008 6.99902 -1zM683.983 535.01c0 -8.66699 -3.66699 -12.999 -11 -12.999
c-6 0 -11.667 3.83301 -17 11.5s-8 16.5 -8 26.5c0 9.33301 3.66699 14 11 14c6 0 11.667 -3.83301 17 -11.5s8 -16.834 8 -27.501zM380.983 384.011c-8.66699 0 -13 3.66699 -13 11s4.33301 11 13 11h11v-22h-11zM274.983 200.011
c-5.33301 0 -9.16699 1.66797 -11.5 5.00098s-3.5 6.66602 -3.5 9.99902c0 6 2.66699 9 8 9s8.33301 -1.66699 9 -5l3 -19h-5zM715.982 187.012c0 -8.66699 -3.66699 -12.999 -11 -12.999c-6 0 -11.667 3.83301 -17 11.5s-8 16.5 -8 26.5c0 9.33301 3.66699 14 11 14
c6 0 11.667 -3.83301 17 -11.5s8 -16.834 8 -27.501zM392.982 182.013c0 -4.66699 -1.33203 -7.00098 -3.99902 -7.00098h-5c-7.33301 0 -13.5 3.33301 -18.5 10s-7.5 14 -7.5 22c0 11.333 4.66699 17 14 17h6c2 -0.666992 3.16699 -1.16699 3.5 -1.5
s1.16602 -2.16602 2.49902 -5.49902zM552.983 79.0117c3.33301 0 3.33301 -3 0 -9c-3.33301 6 -3.33301 9 0 9zM351.983 64.0117h-3c-5.33301 0 -8 2.66699 -8 8c0 4 2.33301 6 7 6c2.66699 0 4 -1.33301 4 -4v-10zM416.983 64.0117
c0 -4.66699 -0.832031 -8.66699 -2.49902 -12s-4.83398 -5 -9.50098 -5c-4 0 -7 1.66699 -9 5s-3 7.33301 -3 12c0 10.667 4 16 12 16s12 -5.33301 12 -16z" />
    </font>
</defs>
</svg>
