<?xml version="1.0" standalone="no"?>
<!DOCTYPE svg PUBLIC "-//W3C//DTD SVG 1.1//EN" "http://www.w3.org/Graphics/SVG/1.1/DTD/svg11.dtd" >
<svg>
<metadata>
Created by FontForge 20090914 at Fri Mar 20 18:37:24 2020
 By www-data
HTF Gotham    2000 The Hoefler Type Foundry, Inc. Info: www.typography.com
</metadata>
<defs>
<font id="GothamHTF-Bold2" horiz-adv-x="500" >
  <font-face 
    font-family="GothamHTF-Bold"
    font-weight="700"
    font-stretch="normal"
    units-per-em="1000"
    panose-1="0 0 0 0 0 0 0 0 0 0"
    ascent="800"
    descent="-200"
    x-height="536"
    cap-height="700"
    bbox="-71 -173 1195 932"
    underline-thickness="20"
    underline-position="-113"
    unicode-range="U+000D-U+FB02"
  />
<missing-glyph 
 />
    <glyph glyph-name=".notdef" 
 />
    <glyph glyph-name="nonmarkingreturn" unicode="&#xd;" horiz-adv-x="250" 
 />
    <glyph glyph-name="space" unicode=" " horiz-adv-x="300" 
 />
    <glyph glyph-name="exclam" unicode="!" horiz-adv-x="324" 
d="M251 700v-20l-47 -442h-84l-47 442v20h178zM81 0v160h162v-160h-162z" />
    <glyph glyph-name="quotedbl" unicode="&#x22;" horiz-adv-x="520" 
d="M311 700h168v-5l-109 -314h-77zM75 700h168v-5l-109 -314h-77z" />
    <glyph glyph-name="numbersign" unicode="#" horiz-adv-x="700" 
d="M567 426l-25 -148h88v-128h-110l-26 -150h-132l26 150h-145l-26 -150h-132l26 150h-76v128h98l25 148h-88v128h110l25 146h132l-25 -146h145l25 146h132l-25 -146h76v-128h-98zM290 426l-25 -148h145l25 148h-145z" />
    <glyph glyph-name="dollar" unicode="$" horiz-adv-x="646" 
d="M596 199c0 -28 -5.16895 -53.3281 -15.502 -75.9951s-24.666 -42.5 -42.999 -59.5s-40.5 -30.833 -66.5 -41.5s-55 -17.667 -87 -21v-99h-104v101c-43.333 5.33301 -85.166 16.166 -125.499 32.499s-77.166 37.166 -110.499 62.499l78 114
c27.333 -20.667 53.833 -37.834 79.5 -51.501s53.5 -23.5 83.5 -29.5v159c-72 19.333 -125.833 45 -161.5 77s-53.5 77.333 -53.5 136c0 28 5 53.333 15 76s24.167 42.5 42.5 59.5s40.5 30.667 66.5 41s54.667 17.166 86 20.499v58h104v-60
c36 -5.33301 69.167 -14.166 99.5 -26.499s59.166 -28.166 86.499 -47.499l-67 -117c-20 13.333 -40.333 25.166 -61 35.499s-41.667 18.166 -63 23.499v-151c76 -20.667 131.167 -47.834 165.5 -81.501s51.5 -78.5 51.5 -134.5zM284.998 575.005
c-24 -3.33301 -41.5 -10.668 -52.5 -22.001s-16.5 -25 -16.5 -41c0 -15.333 4.5 -28.666 13.5 -39.999s27.5 -22 55.5 -32v135zM449.998 191.003c0 17.333 -5 31.667 -15 43s-28.667 22 -56 32v-140c47.333 7.33301 71 29 71 65z" />
    <glyph glyph-name="percent" unicode="%" horiz-adv-x="860" 
d="M385 530c0 -24.667 -4.16699 -48 -12.5 -70s-20 -41.167 -35 -57.5s-33 -29.166 -54 -38.499s-44.167 -14 -69.5 -14s-48.333 4.66699 -69 14s-38.5 22 -53.5 38s-26.5 34.833 -34.5 56.5s-12 44.834 -12 69.501c0 25.333 4.16699 48.833 12.5 70.5s20 40.667 35 57
s33 29.166 54 38.499s44.167 14 69.5 14s48.333 -4.66699 69 -14s38.5 -22 53.5 -38s26.5 -34.833 34.5 -56.5s12 -44.834 12 -69.501zM234 0h-119l511 700h119zM815 172c0 -24.667 -4.16699 -48 -12.5 -70s-20 -41.167 -35 -57.5s-33 -29.166 -54 -38.499
s-44.167 -14 -69.5 -14s-48.333 4.66699 -69 14s-38.5 22 -53.5 38s-26.5 34.833 -34.5 56.5s-12 44.834 -12 69.501c0 25.333 4.16699 48.833 12.5 70.5s20 40.667 35 57s33 29.166 54 38.499s44.167 14 69.5 14s48.333 -4.66699 69 -14s38.5 -22 53.5 -38
s26.5 -34.833 34.5 -56.5s12 -44.834 12 -69.501zM280 528c0 24 -6 44.833 -18 62.5s-28 26.5 -48 26.5c-21.333 0 -37.333 -8.66699 -48 -26s-16 -37.666 -16 -60.999c0 -24 6 -44.833 18 -62.5s28 -26.5 48 -26.5c21.333 0 37.333 8.66699 48 26s16 37.666 16 60.999z
M710 170c0 24 -6 44.833 -18 62.5s-28 26.5 -48 26.5c-21.333 0 -37.333 -8.66699 -48 -26s-16 -37.666 -16 -60.999c0 -24 6 -44.833 18 -62.5s28 -26.5 48 -26.5c21.333 0 37.333 8.66699 48 26s16 37.666 16 60.999z" />
    <glyph glyph-name="ampersand" unicode="&#x26;" horiz-adv-x="696" 
d="M555 -14l-80.999 81.9971c-28.667 -23.333 -59.834 -42.166 -93.501 -56.499s-70.834 -21.5 -111.501 -21.5c-33.333 0 -64.333 4.66699 -93 14s-53.5 22.833 -74.5 40.5s-37.5 39 -49.5 64s-18 53.167 -18 84.5c0 45.333 11.667 83.833 35 115.5s57 57.5 101 77.5
c-17.333 24.667 -29.833 48.167 -37.5 70.5s-11.5 45.833 -11.5 70.5c0 24 4.66699 47.167 14 69.5s23 42 41 59s40.167 30.667 66.5 41s56.5 15.5 90.5 15.5c30 0 57 -4.5 81 -13.5s44.667 -21.5 62 -37.5s30.666 -34.667 39.999 -56s14 -44.666 14 -69.999
c0 -47.333 -13.667 -85.5 -41 -114.5s-62.666 -52.167 -105.999 -69.5l93 -93c11.333 18 22.666 37.167 33.999 57.5l34 62.5l113 -62c-13.333 -24.667 -27.666 -49.667 -42.999 -75s-31.666 -49.666 -48.999 -72.999l103 -103zM396.001 525.997
c0 21.333 -6.16895 37.667 -18.502 49s-28.166 17 -47.499 17c-20.667 0 -37.167 -6.66699 -49.5 -20s-18.5 -30.666 -18.5 -51.999c0 -16 3.16699 -30.5 9.5 -43.5s16.833 -27.833 31.5 -44.5c30.667 11.333 53.834 24.166 69.501 38.499s23.5 32.833 23.5 55.5z
M253.999 291.998c-23.333 -12 -40 -26.168 -50 -42.501s-15 -33.166 -15 -50.499c0 -25.333 9.16699 -45.5 27.5 -60.5s41.833 -22.5 70.5 -22.5c17.333 0 34.5 3.5 51.5 10.5s33.5 16.833 49.5 29.5z" />
    <glyph glyph-name="quotesingle" unicode="'" horiz-adv-x="286" 
d="M75 700h170v-5l-109 -314h-79z" />
    <glyph glyph-name="parenleft" unicode="(" horiz-adv-x="445" 
d="M403 614c-34 -23.333 -63.167 -47 -87.5 -71s-44.333 -49 -60 -75s-27.167 -53.833 -34.5 -83.5s-11 -62.167 -11 -97.5s3.66699 -67.833 11 -97.5s18.833 -57.5 34.5 -83.5s35.667 -51 60 -75s53.5 -47.667 87.5 -71l-67 -101c-92.667 50 -162 109.667 -208 179
s-69 152.333 -69 249s23 179.667 69 249s115.333 129 208 179z" />
    <glyph glyph-name="parenright" unicode=")" horiz-adv-x="445" 
d="M386 287c0 -96.667 -23 -179.667 -69 -249s-115.333 -129 -208 -179l-67 101c34 23.333 63.167 47 87.5 71s44.333 49 60 75s27.167 53.833 34.5 83.5s11 62.167 11 97.5s-3.66699 67.833 -11 97.5s-18.833 57.5 -34.5 83.5s-35.667 51 -60 75s-53.5 47.667 -87.5 71
l67 101c92.667 -50 162 -109.667 208 -179s69 -152.333 69 -249z" />
    <glyph glyph-name="asterisk" unicode="*" horiz-adv-x="430" 
d="M337 418l-97 74l16 -120h-82l16 120l-97 -74l-42 72l112 47l-112 47l42 72l97 -74l-16 120h82l-16 -120l97 74l42 -72l-112 -47l112 -47z" />
    <glyph glyph-name="plus" unicode="+" horiz-adv-x="640" 
d="M249 601h142v-180h181v-138h-181v-180h-142v180h-181v138h181v180z" />
    <glyph glyph-name="comma" unicode="," horiz-adv-x="286" 
d="M26 -99c70.667 7.33301 103.333 40.333 98 99h-62v160h162v-135c0 -66 -16 -113.5 -48 -142.5s-77.667 -43.833 -137 -44.5z" />
    <glyph glyph-name="hyphen" unicode="-" horiz-adv-x="408" 
d="M50 237v146h308v-146h-308z" />
    <glyph glyph-name="period" unicode="." horiz-adv-x="286" 
d="M62 0v160h162v-160h-162z" />
    <glyph glyph-name="slash" unicode="/" horiz-adv-x="530" 
d="M544 798l-443 -926h-129l443 926h129z" />
    <glyph glyph-name="zero" unicode="0" horiz-adv-x="730" 
d="M676 351c0 -50.667 -7.5 -98.166 -22.5 -142.499s-36.167 -82.833 -63.5 -115.5s-60.166 -58.334 -98.499 -77.001s-80.833 -28 -127.5 -28s-89.167 9.16699 -127.5 27.5s-71 43.833 -98 76.5s-47.833 71 -62.5 115s-22 91.333 -22 142c0 51.333 7.5 99 22.5 143
s36.167 82.333 63.5 115s60.166 58.334 98.499 77.001s80.833 28 127.5 28s89.167 -9.16699 127.5 -27.5s71 -43.833 98 -76.5s47.833 -70.834 62.5 -114.501s22 -91.167 22 -142.5zM518 349.001c0 32 -3.66699 61.667 -11 89s-17.666 51 -30.999 71s-29.5 35.667 -48.5 47
s-40.167 17 -63.5 17s-44.333 -5.5 -63 -16.5s-34.667 -26.333 -48 -46s-23.5 -43.167 -30.5 -70.5s-10.5 -57 -10.5 -89s3.66699 -61.667 11 -89s17.666 -51 30.999 -71s29.5 -35.667 48.5 -47s40.167 -17 63.5 -17s44.333 5.5 63 16.5s34.667 26.5 48 46.5
s23.5 43.5 30.5 70.5s10.5 56.5 10.5 88.5z" />
    <glyph glyph-name="one" unicode="1" horiz-adv-x="422" 
d="M225 705h105v-705h-152v549l-122 -30l-32 126z" />
    <glyph glyph-name="two" unicode="2" horiz-adv-x="623" 
d="M309 572c-27.333 0 -51.5 -7.66504 -72.5 -22.998s-44.5 -39 -70.5 -71l-108 87c17.333 23.333 34.833 44 52.5 62s36.667 33.167 57 45.5s42.833 21.666 67.5 27.999s52.667 9.5 84 9.5c37.333 0 70.833 -5.16699 100.5 -15.5s55 -25 76 -44s37 -41.833 48 -68.5
s16.5 -56.334 16.5 -89.001c0 -29.333 -3.83301 -55.5 -11.5 -78.5s-19 -44.833 -34 -65.5s-34 -41.167 -57 -61.5s-50.167 -42.5 -81.5 -66.5l-114 -88h305v-133h-518v122l233 191c22 18 40.667 34.167 56 48.5s27.833 28 37.5 41s16.667 25.667 21 38s6.5 25.833 6.5 40.5
c0 30 -8.66699 52.667 -26 68s-40 23 -68 23z" />
    <glyph glyph-name="three" unicode="3" horiz-adv-x="621" 
d="M79 568l0.000976562 132.001h473v-116l-177 -169c24 -4 47.333 -10.333 70 -19s42.667 -20.834 60 -36.501s31.333 -35 42 -58s16 -50.833 16 -83.5c0 -33.333 -5.83301 -64 -17.5 -92s-28.334 -52.333 -50.001 -73s-48 -36.667 -79 -48s-66.167 -17 -105.5 -17
c-63.333 0 -117.166 11.167 -161.499 33.5s-81.5 51.5 -111.5 87.5l106 101c24 -27.333 49.167 -48.166 75.5 -62.499s57.5 -21.5 93.5 -21.5c29.333 0 53.166 7.66699 71.499 23s27.5 36.333 27.5 63c0 29.333 -11.833 51.666 -35.5 66.999s-57.5 23 -101.5 23h-64l-24 98
l167 168h-275z" />
    <glyph glyph-name="four" unicode="4" horiz-adv-x="689" 
d="M545 705v-429h94v-125h-94v-151h-147v151h-342l-25 109l384 445h130zM398 494l-186 -218h186v218z" />
    <glyph glyph-name="five" unicode="5" horiz-adv-x="630" 
d="M110 700l429.999 -0.000976562v-135h-298l-8 -121c14 3.33301 28 6.16602 42 8.49902s30.667 3.5 50 3.5c34.667 0 66.834 -4.33301 96.501 -13s55.5 -22 77.5 -40s39.333 -41.167 52 -69.5s19 -62.5 19 -102.5c0 -37.333 -6.33301 -71 -19 -101s-30.5 -55.5 -53.5 -76.5
s-51 -37.167 -84 -48.5s-69.5 -17 -109.5 -17c-56.667 0 -106 9.33301 -148 28s-80 44.334 -114 77.001l93 111c26.667 -24 53.334 -42.667 80.001 -56s55.667 -20 87 -20c36 0 64.5 8.33301 85.5 25s31.5 41 31.5 73c0 30.667 -11.167 54.334 -33.5 71.001
s-52.5 25 -90.5 25c-22 0 -42.833 -2.5 -62.5 -7.5s-37.834 -11.167 -54.501 -18.5l-89 59z" />
    <glyph glyph-name="six" unicode="6" horiz-adv-x="662" 
d="M499 516c-23.333 17.333 -45.4932 31.002 -66.4932 41.002s-46.5 15 -76.5 15c-22 0 -41.167 -4.16699 -57.5 -12.5s-30.333 -19.666 -42 -33.999s-20.834 -31.333 -27.501 -51s-11.334 -41.167 -14.001 -64.5c17.333 11.333 37.166 21.666 59.499 30.999
s50.833 14 85.5 14s67 -4.83301 97 -14.5s56 -23.834 78 -42.501s39.333 -42 52 -70s19 -60.333 19 -97c0 -36 -6.83301 -68.833 -20.5 -98.5s-32.334 -55.334 -56.001 -77.001s-51.834 -38.334 -84.501 -50.001s-68 -17.5 -106 -17.5c-46 0 -85 6.33301 -117 19
s-60.333 31.334 -85 56.001c-25.333 25.333 -45.5 58.5 -60.5 99.5s-22.5 96.5 -22.5 166.5c0 54 6.16699 104.333 18.5 151s31.166 87.167 56.499 121.5s57.333 61.333 96 81s84 29.5 136 29.5c48 0 88.667 -6.66699 122 -20s65.666 -32.333 96.999 -57zM453.007 224.002
c0 30 -10.833 54.668 -32.5 74.001s-51.5 29 -89.5 29s-67.5 -9.5 -88.5 -28.5s-31.5 -43.5 -31.5 -73.5c0 -30.667 10.833 -55.834 32.5 -75.501s51.5 -29.5 89.5 -29.5s67.5 9.66699 88.5 29s31.5 44.333 31.5 75z" />
    <glyph glyph-name="seven" unicode="7" horiz-adv-x="619" 
d="M68 700h504v-116l-314 -584h-174l313 567h-329v133z" />
    <glyph glyph-name="eight" unicode="8" horiz-adv-x="630" 
d="M585 197c0 -32.667 -6.83496 -61.8311 -20.502 -87.498s-32.5 -47.334 -56.5 -65.001s-52.5 -31.167 -85.5 -40.5s-68.833 -14 -107.5 -14s-74.5 4.83301 -107.5 14.5s-61.5 23.334 -85.5 41.001s-42.833 39 -56.5 64s-20.5 52.833 -20.5 83.5
c0 43.333 9.5 78.166 28.5 104.499s47.167 48.166 84.5 65.499c-27.333 16.667 -49 37 -65 61s-24 55 -24 93c0 27.333 5.83301 52.666 17.5 75.999s28.334 43.666 50.001 60.999s47.667 31 78 41s63.833 15 100.5 15c37.333 0 71 -5 101 -15s55.833 -23.667 77.5 -41
s38.334 -37.666 50.001 -60.999s17.5 -48.666 17.5 -75.999c0 -38 -8 -69 -24 -93s-37.667 -44.333 -65 -61c36 -18.667 63.833 -40.5 83.5 -65.5s29.5 -58.5 29.5 -100.5zM414.998 500.003c0 22 -8.66699 41.332 -26 57.999s-42 25 -74 25s-56.667 -8.16699 -74 -24.5
s-26 -35.5 -26 -57.5c0 -25.333 9 -46.166 27 -62.499s42.333 -24.5 73 -24.5s55 8 73 24s27 36.667 27 62zM435.998 205.002c0 28 -11.333 49.5 -34 64.5s-51.667 22.5 -87 22.5s-64.333 -7.5 -87 -22.5s-34 -36.5 -34 -64.5c0 -25.333 10.667 -46.333 32 -63
s51 -25 89 -25s67.667 8.33301 89 25s32 37.667 32 63z" />
    <glyph glyph-name="nine" unicode="9" horiz-adv-x="662" 
d="M608 371c0 -56.667 -6.66699 -108.665 -20 -155.998s-32.833 -87.666 -58.5 -120.999s-57.5 -59.333 -95.5 -78s-82 -28 -132 -28c-51.333 0 -95 7.66699 -131 23s-69 35.333 -99 60l81 117c25.333 -20.667 49.666 -35.834 72.999 -45.501s50 -14.5 80 -14.5
c43.333 0 76.5 14.667 99.5 44s37.167 67.666 42.5 114.999c-17.333 -14.667 -37.666 -26.334 -60.999 -35.001s-50.333 -13 -81 -13c-38 0 -72.333 5.16699 -103 15.5s-57 25.166 -79 44.499s-38.833 43 -50.5 71s-17.5 60 -17.5 96c0 35.333 6.5 68 19.5 98
s31.333 56 55 78s51.834 39.167 84.501 51.5s68.667 18.5 108 18.5c47.333 0 86.166 -6 116.499 -18s58.833 -31.333 85.5 -58c25.333 -24.667 45.5 -57.667 60.5 -99s22.5 -96.666 22.5 -165.999zM451 472.002c0 32 -10.832 57.999 -32.499 77.999s-51.834 30 -90.501 30
c-38 0 -67.333 -9.83301 -88 -29.5s-31 -45.5 -31 -77.5s10.833 -57.667 32.5 -77s51.5 -29 89.5 -29s67.5 9.83301 88.5 29.5s31.5 44.834 31.5 75.501z" />
    <glyph glyph-name="colon" unicode=":" horiz-adv-x="296" 
d="M67 376v160h162v-160h-162zM67 0v160h162v-160h-162z" />
    <glyph glyph-name="semicolon" unicode=";" horiz-adv-x="296" 
d="M67 376v160h162v-160h-162zM31 -99c70.667 7.33301 103.333 40.333 98 99h-62v160h162v-135c0 -66 -16 -113.5 -48 -142.5s-77.667 -43.833 -137 -44.5z" />
    <glyph glyph-name="less" unicode="&#x3c;" horiz-adv-x="640" 
d="M552 633v-141l-338 -139l338 -139v-143l-484 212v138z" />
    <glyph glyph-name="equal" unicode="=" horiz-adv-x="640" 
d="M557 551v-138h-474v138h474zM557 291v-138h-474v138h474z" />
    <glyph glyph-name="greater" unicode="&#x3e;" horiz-adv-x="640" 
d="M88 71v141l338 139l-338 139v143l484 -212v-138z" />
    <glyph glyph-name="question" unicode="?" horiz-adv-x="544" 
d="M179 405c63.333 2.66699 108.331 11.833 134.998 27.5s40 37.167 40 64.5c0 23.333 -8 41.166 -24 53.499s-38.667 18.5 -68 18.5c-28 0 -54.167 -5.66699 -78.5 -17s-48.166 -28.666 -71.499 -51.999l-92 101c29.333 32 63.833 58 103.5 78s86.834 30 141.501 30
c36 0 68.833 -4.5 98.5 -13.5s55.167 -22.333 76.5 -40s37.833 -39.5 49.5 -65.5s17.5 -55.667 17.5 -89c0 -32 -5.16699 -59.5 -15.5 -82.5s-24.333 -42.5 -42 -58.5s-38.5 -28.833 -62.5 -38.5s-49.667 -17.167 -77 -22.5l-11 -61h-102l-23 162zM163.998 -0.000976562v160
h162v-160h-162z" />
    <glyph glyph-name="at" unicode="@" horiz-adv-x="980" 
d="M927 316c0 -42 -5.17285 -78.6709 -15.5059 -110.004s-24.5 -57.5 -42.5 -78.5s-39.167 -36.667 -63.5 -47s-50.166 -15.5 -77.499 -15.5c-40.667 0 -73.167 6.33301 -97.5 19s-42.833 26.334 -55.5 41.001c-17.333 -15.333 -38.166 -29.166 -62.499 -41.499
s-52.833 -18.5 -85.5 -18.5c-25.333 0 -49.166 4.5 -71.499 13.5s-41.666 21.833 -57.999 38.5s-29.333 36.834 -39 60.501s-14.5 50.5 -14.5 80.5c0 35.333 6.16699 68.333 18.5 99s28.833 57.167 49.5 79.5s44.5 40 71.5 53s55.167 19.5 84.5 19.5
c34.667 0 62.834 -6.5 84.501 -19.5s39.5 -29.167 53.5 -48.5l11 53l118 -19l-47 -269c-1.33301 -5.33301 -2.16602 -10.833 -2.49902 -16.5s-0.5 -10.5 -0.5 -14.5c0 -18 6.33301 -33 19 -45s30.667 -18 54 -18c36 0 66.167 17.333 90.5 52s36.5 85.334 36.5 152.001
c0 46 -10 90.5 -30 133.5s-47.5 81 -82.5 114s-76.667 59.333 -125 79s-100.5 29.5 -156.5 29.5c-56.667 0 -109.167 -10.5 -157.5 -31.5s-90.166 -49.5 -125.499 -85.5s-63 -78.167 -83 -126.5s-30 -99.833 -30 -154.5s10 -106.167 30 -154.5s47.833 -90.333 83.5 -126
s78.334 -63.834 128.001 -84.501s103.834 -31 162.501 -31c50 0 93.833 5.66699 131.5 17s75.5 28 113.5 50l20 -32c-38.667 -23.333 -79.5 -41.666 -122.5 -54.999s-90.5 -20 -142.5 -20c-64 0 -123.167 11.5 -177.5 34.5s-101.5 54.333 -141.5 94
s-71.167 85.834 -93.5 138.501s-33.5 109 -33.5 169s11.333 116.5 34 169.5s53.667 99.333 93 139s85.666 71.167 138.999 94.5s110.666 35 171.999 35s118.5 -11 171.5 -33s99.167 -51.333 138.5 -88s70.166 -78.834 92.499 -126.501s33.5 -97.167 33.5 -148.5z
M580.994 311.996c0 28.667 -8.66797 51.498 -26.001 68.498s-39.666 25.5 -66.999 25.5c-16 0 -31.333 -3.66699 -46 -11s-27.5 -17.166 -38.5 -29.499s-19.667 -27.166 -26 -44.499s-9.5 -36 -9.5 -56c0 -31.333 8.66699 -55.333 26 -72s40 -25 68 -25
c16 0 31.167 3.66699 45.5 11s27 17.5 38 30.5s19.667 28.167 26 45.5s9.5 36.333 9.5 57z" />
    <glyph glyph-name="A" unicode="A" horiz-adv-x="790" 
d="M605 0l-64 157h-296l-64 -157h-157l300 705h142l300 -705h-161zM393 520l-93 -227h186z" />
    <glyph glyph-name="B" unicode="B" horiz-adv-x="722" 
d="M679 192c0 -32 -6.16797 -60 -18.501 -84s-30 -44 -53 -60s-50.667 -28 -83 -36s-68.166 -12 -107.499 -12h-333v700h325c72 0 128.5 -16.333 169.5 -49s61.5 -76.667 61.5 -132v-2c0 -40 -9 -71.667 -27 -95s-39.667 -42 -65 -56c40.667 -15.333 72.667 -36 96 -62
s35 -62.667 35 -110v-2zM486.999 493c0 23.333 -8.66699 41.167 -26 53.5s-42.333 18.5 -75 18.5h-152v-148h142c34 0 61 5.83301 81 17.5s30 30.5 30 56.5v2zM525.999 213.001c0 23.333 -9 41.833 -27 55.5s-47 20.5 -87 20.5h-178v-154h183c34 0 60.667 6.16699 80 18.5
s29 31.5 29 57.5v2z" />
    <glyph glyph-name="C" unicode="C" horiz-adv-x="738" 
d="M699 113c-18 -19.333 -36.6689 -36.6689 -56.002 -52.002s-40.5 -28.5 -63.5 -39.5s-48.167 -19.333 -75.5 -25s-58 -8.5 -92 -8.5c-51.333 0 -99 9.33301 -143 28s-82 44.167 -114 76.5s-57 70.5 -75 114.5s-27 91 -27 141v2c0 50 9 96.833 27 140.5s43 82 75 115
s70.333 59 115 78s94 28.5 148 28.5c33.333 0 63.333 -2.66699 90 -8s51 -12.666 73 -21.999s42.333 -20.666 61 -33.999s36 -28 52 -44l-98 -113c-27.333 24.667 -55.166 44 -83.499 58s-60.166 21 -95.499 21c-29.333 0 -56.5 -5.66699 -81.5 -17s-46.5 -27 -64.5 -47
s-32 -43.167 -42 -69.5s-15 -54.5 -15 -84.5v-2c0 -30 5 -58.333 15 -85s23.833 -50 41.5 -70s39 -35.833 64 -47.5s52.5 -17.5 82.5 -17.5c40 0 73.833 7.5 101.5 22.5s55.167 34.833 82.5 59.5z" />
    <glyph glyph-name="D" unicode="D" horiz-adv-x="782" 
d="M729 350c0 -49.333 -9 -95.335 -27 -138.002s-43.5 -79.667 -76.5 -111s-72.167 -56 -117.5 -74s-95.666 -27 -150.999 -27h-273v700h273c55.333 0 105.666 -8.83301 150.999 -26.5s84.5 -42.167 117.5 -73.5s58.5 -68.166 76.5 -110.499s27 -88.166 27 -137.499v-2z
M568 349.998c0 31.333 -5 59.8301 -15 85.4971s-24.333 47.834 -43 66.501s-41 33.167 -67 43.5s-54.667 15.5 -86 15.5h-119v-422h119c31.333 0 60 5 86 15s48.333 24.333 67 43s33 40.834 43 66.501s15 53.834 15 84.501v2z" />
    <glyph glyph-name="E" unicode="E" horiz-adv-x="670" 
d="M84 0v700h528v-137h-375v-142h330v-137h-330v-147h380v-137h-533z" />
    <glyph glyph-name="F" unicode="F" horiz-adv-x="656" 
d="M238 560v-149h334v-140h-334v-271h-154v700h533v-140h-379z" />
    <glyph glyph-name="G" unicode="G" horiz-adv-x="784" 
d="M720 99c-36 -30.667 -78.6689 -56.832 -128.002 -78.499s-106.333 -32.5 -171 -32.5c-54.667 0 -104.5 9 -149.5 27s-83.667 43 -116 75s-57.5 70 -75.5 114s-27 92 -27 144v2c0 50 9.16699 96.833 27.5 140.5s43.833 82 76.5 115s71.5 59 116.5 78
s93.833 28.5 146.5 28.5c31.333 0 59.833 -2.16699 85.5 -6.5s49.5 -10.5 71.5 -18.5s42.667 -18 62 -30s38 -25.667 56 -41l-97 -117c-26.667 22.667 -53.667 40.167 -81 52.5s-61.333 18.5 -102 18.5c-28 0 -54.167 -5.83301 -78.5 -17.5s-45.666 -27.334 -63.999 -47.001
s-32.666 -42.667 -42.999 -69s-15.5 -54.5 -15.5 -84.5v-2c0 -32 5.16699 -61.5 15.5 -88.5s25 -50.5 44 -70.5s41.5 -35.5 67.5 -46.5s54.333 -16.5 85 -16.5c58 0 106.333 14 145 42v100h-155v133h304v-304z" />
    <glyph glyph-name="H" unicode="H" horiz-adv-x="760" 
d="M522 0v281h-284v-281h-154v700h154v-277h284v277h154v-700h-154z" />
    <glyph glyph-name="I" unicode="I" horiz-adv-x="336" 
d="M91 0v700h154v-700h-154z" />
    <glyph glyph-name="J" unicode="J" horiz-adv-x="564" 
d="M491 242c0 -42.667 -6.00098 -79.668 -18.001 -111.001s-28.833 -57.5 -50.5 -78.5s-47.667 -36.667 -78 -47s-64.166 -15.5 -101.499 -15.5c-54.667 0 -100.5 10.333 -137.5 31s-67.5 45.334 -91.5 74.001l97 108c20 -22 40.167 -39.167 60.5 -51.5
s42.833 -18.5 67.5 -18.5c29.333 0 52.333 9.16699 69 27.5s25 47.833 25 88.5v451h158v-458z" />
    <glyph glyph-name="K" unicode="K" horiz-adv-x="730" 
d="M536 0l-217 298l-81 -84v-214h-154v700h154v-306l284 306h186l-285 -297l298 -403h-185z" />
    <glyph glyph-name="L" unicode="L" horiz-adv-x="619" 
d="M84 0v700h154v-560h349v-140h-503z" />
    <glyph glyph-name="M" unicode="M" horiz-adv-x="868" 
d="M631 0v457l-197 -299h-4l-195 296v-454h-151v700h166l184 -296l184 296h166v-700h-153z" />
    <glyph glyph-name="N" unicode="N" horiz-adv-x="790" 
d="M575 0l-339 445v-445h-152v700h142l328 -431v431h152v-700h-131z" />
    <glyph glyph-name="O" unicode="O" horiz-adv-x="850" 
d="M797 350c0 -50 -9.33301 -96.833 -28 -140.5s-44.5 -82 -77.5 -115s-72.333 -59 -118 -78s-95.5 -28.5 -149.5 -28.5s-103.667 9.5 -149 28.5s-84.5 44.667 -117.5 77s-58.667 70.333 -77 114s-27.5 90.5 -27.5 140.5v2c0 50 9.33301 96.833 28 140.5s44.5 82 77.5 115
s72.333 59 118 78s95.5 28.5 149.5 28.5s103.667 -9.5 149 -28.5s84.5 -44.667 117.5 -77s58.667 -70.333 77 -114s27.5 -90.5 27.5 -140.5v-2zM636 350c0 30 -5.16699 58.333 -15.5 85s-25 50 -44 70s-41.333 35.833 -67 47.5s-54.167 17.5 -85.5 17.5
c-30.667 0 -59 -5.66699 -85 -17s-48.167 -27 -66.5 -47s-32.666 -43.167 -42.999 -69.5s-15.5 -54.5 -15.5 -84.5v-2c0 -30 5.16699 -58.333 15.5 -85s25 -50 44 -70s41.5 -35.833 67.5 -47.5s54.333 -17.5 85 -17.5c31.333 0 59.833 5.66699 85.5 17s47.667 27 66 47
s32.666 43.167 42.999 69.5s15.5 54.5 15.5 84.5v2z" />
    <glyph glyph-name="P" unicode="P" horiz-adv-x="668" 
d="M638 456c0 -40.667 -7.33301 -76.332 -22 -106.999s-34.834 -56.334 -60.501 -77.001s-55.667 -36.167 -90 -46.5s-71.166 -15.5 -110.499 -15.5h-117v-210h-154v700h286c42 0 79.5 -5.83301 112.5 -17.5s61 -28.167 84 -49.5s40.667 -46.833 53 -76.5
s18.5 -62.5 18.5 -98.5v-2zM482 455.002c0 34.667 -11.167 61 -33.5 79s-52.833 27 -91.5 27h-119v-214h122c38.667 0 68.667 10.167 90 30.5s32 45.5 32 75.5v2z" />
    <glyph glyph-name="Q" unicode="Q" horiz-adv-x="850" 
d="M709 -21l-77 68.999c-30 -19.333 -62.333 -34.166 -97 -44.499s-71.667 -15.5 -111 -15.5c-54 0 -103.667 9.5 -149 28.5s-84.5 44.667 -117.5 77s-58.667 70.333 -77 114s-27.5 90.5 -27.5 140.5v2c0 50 9.33301 96.833 28 140.5s44.5 82 77.5 115s72.333 59 118 78
s95.5 28.5 149.5 28.5s103.667 -9.5 149 -28.5s84.5 -44.667 117.5 -77s58.667 -70.333 77 -114s27.5 -90.5 27.5 -140.5v-2c0 -36.667 -5.33301 -72 -16 -106s-26 -65.667 -46 -95l72 -61zM636 349.999c0 30 -5.16895 58.333 -15.502 85s-25 50 -44 70
s-41.333 35.833 -67 47.5s-54.167 17.5 -85.5 17.5c-30.667 0 -59 -5.66699 -85 -17s-48.167 -27 -66.5 -47s-32.666 -43.167 -42.999 -69.5s-15.5 -54.5 -15.5 -84.5v-2c0 -30 5.16699 -58.333 15.5 -85s25 -50 44 -70s41.5 -35.833 67.5 -47.5s54.333 -17.5 85 -17.5
c32.667 0 63.334 6.33301 92.001 19l-114 97l98 110l115 -104c12.667 28 19 60 19 96v2z" />
    <glyph glyph-name="R" unicode="R" horiz-adv-x="723" 
d="M509 0l-149.998 224.003h-121v-224h-154v700h320c83.333 0 148.166 -20.333 194.499 -61s69.5 -97.334 69.5 -170.001v-2c0 -56.667 -13.833 -102.834 -41.5 -138.501s-63.834 -61.834 -108.501 -78.501l171 -250h-180zM512.002 461.003c0 33.333 -10.667 58.333 -32 75
s-51 25 -89 25h-153v-201h156c38 0 67.167 9 87.5 27s30.5 42 30.5 72v2z" />
    <glyph glyph-name="S" unicode="S" horiz-adv-x="640" 
d="M590 207c0 -34.667 -6.33398 -65.5029 -19.001 -92.5029s-30.334 -49.667 -53.001 -68s-49.667 -32.333 -81 -42s-66 -14.5 -104 -14.5c-53.333 0 -105.666 9.16699 -156.999 27.5s-98 46.5 -140 84.5l91 109c32 -26 64.833 -46.667 98.5 -62s70.5 -23 110.5 -23
c32 0 56.833 5.83301 74.5 17.5s26.5 27.834 26.5 48.501v2c0 10 -1.83301 18.833 -5.5 26.5s-10.667 14.834 -21 21.501s-24.666 13.334 -42.999 20.001s-42.166 13.667 -71.499 21c-35.333 9.33301 -67.333 19.166 -96 29.499s-53 23.333 -73 39s-35.5 35.167 -46.5 58.5
s-16.5 52.333 -16.5 87v2c0 32 6 60.833 18 86.5s28.833 47.834 50.5 66.501s47.5 33 77.5 43s63 15 99 15c51.333 0 98.5 -7.66699 141.5 -23s82.5 -37.333 118.5 -66l-80 -116c-31.333 21.333 -62 38.166 -92 50.499s-60 18.5 -90 18.5s-52.5 -5.83301 -67.5 -17.5
s-22.5 -26.167 -22.5 -43.5v-2c0 -11.333 2.16699 -21.166 6.5 -29.499s12.166 -15.833 23.499 -22.5s26.833 -13 46.5 -19s44.5 -13 74.5 -21c35.333 -9.33301 66.833 -19.833 94.5 -31.5s51 -25.667 70 -42s33.333 -35.5 43 -57.5s14.5 -48.333 14.5 -79v-2z" />
    <glyph glyph-name="T" unicode="T" horiz-adv-x="648" 
d="M401 558v-558h-154v558h-213v142h580v-142h-213z" />
    <glyph glyph-name="U" unicode="U" horiz-adv-x="756" 
d="M683 305c0 -52.667 -7.16602 -98.833 -21.499 -138.5s-34.833 -72.667 -61.5 -99s-58.834 -46 -96.501 -59s-80.167 -19.5 -127.5 -19.5c-94 0 -168 26.167 -222 78.5s-81 129.833 -81 232.5v400h154v-396c0 -57.333 13.333 -100.5 40 -129.5s63.667 -43.5 111 -43.5
s84.333 14 111 42s40 70 40 126v401h154v-395z" />
    <glyph glyph-name="V" unicode="V" horiz-adv-x="750" 
d="M443 -5h-136l-283 705h170l183 -493l183 493h166z" />
    <glyph glyph-name="W" unicode="W" horiz-adv-x="1122" 
d="M853 -5h-134l-158 458l-158 -458h-134l-239 705h165l145 -474l157 476h132l157 -476l145 474h161z" />
    <glyph glyph-name="X" unicode="X" horiz-adv-x="732" 
d="M521 0l-157 240l-158 -240h-175l244 356l-234 344h180l147 -227l148 227h175l-234 -342l244 -358h-180z" />
    <glyph glyph-name="Y" unicode="Y" horiz-adv-x="716" 
d="M435 279v-279h-154v276l-269 424h180l167 -281l170 281h175z" />
    <glyph glyph-name="Z" unicode="Z" horiz-adv-x="708" 
d="M63 0v117l385 448h-373v135h571v-117l-385 -448h385v-135h-583z" />
    <glyph glyph-name="bracketleft" unicode="[" horiz-adv-x="465" 
d="M406 581h-177v-592h177v-119h-323v830h323v-119z" />
    <glyph glyph-name="backslash" unicode="\" horiz-adv-x="530" 
d="M558 -128h-129l-443 926h129z" />
    <glyph glyph-name="bracketright" unicode="]" horiz-adv-x="465" 
d="M382 700v-830h-323v119h177v592h-177v119h323z" />
    <glyph glyph-name="asciicircum" unicode="^" 
d="M158 493h-108l148 207h104l148 -207h-110l-91 117z" />
    <glyph glyph-name="underscore" unicode="_" horiz-adv-x="600" 
d="M602 -44v-116h-604v116h604z" />
    <glyph glyph-name="grave" unicode="`" 
d="M238 595l-128 120l131 57l113 -177h-116z" />
    <glyph glyph-name="a" unicode="a" horiz-adv-x="592" 
d="M382 0l0.000976562 58.002c-18.667 -20.667 -41 -37.167 -67 -49.5s-57.667 -18.5 -95 -18.5c-25.333 0 -49.166 3.5 -71.499 10.5s-41.833 17.5 -58.5 31.5s-29.834 31.167 -39.501 51.5s-14.5 43.833 -14.5 70.5v2c0 29.333 5.33301 54.666 16 75.999s25.5 39 44.5 53
s41.667 24.5 68 31.5s55.5 10.5 87.5 10.5c27.333 0 51.166 -2 71.499 -6s40.166 -9.33301 59.499 -16v9c0 32 -9.66699 56.333 -29 73s-48 25 -86 25c-29.333 0 -55.166 -2.5 -77.499 -7.5s-45.833 -12.167 -70.5 -21.5l-38 116c30 13.333 60.667 23.833 92 31.5
s70 11.5 116 11.5c83.333 0 144 -20.333 182 -61s57 -97.334 57 -170.001v-311h-147zM385.001 216.002c-13.333 6 -28.166 10.833 -44.499 14.5s-33.833 5.5 -52.5 5.5c-32.667 0 -58.334 -6.33301 -77.001 -19s-28 -31 -28 -55v-2c0 -20.667 7.66699 -36.667 23 -48
s35.333 -17 60 -17c36 0 64.833 8.66699 86.5 26s32.5 40 32.5 68v27z" />
    <glyph glyph-name="b" unicode="b" horiz-adv-x="675" 
d="M631 267c0 -44.667 -6.83398 -84.166 -20.501 -118.499s-31.667 -63.333 -54 -87s-48.166 -41.5 -77.499 -53.5s-60 -18 -92 -18c-40.667 0 -74.167 8 -100.5 24s-48.5 34.667 -66.5 56v-70h-152v730h152v-271c18.667 25.333 41.167 46.166 67.5 62.499
s59.5 24.5 99.5 24.5c31.333 0 61.666 -6 90.999 -18s55.333 -29.833 78 -53.5s40.834 -52.667 54.501 -87s20.5 -73.833 20.5 -118.5v-2zM478.999 269.001c0 22 -3.5 42.167 -10.5 60.5s-16.5 34 -28.5 47s-25.833 23 -41.5 30s-32.5 10.5 -50.5 10.5
s-34.833 -3.5 -50.5 -10.5s-29.334 -17 -41.001 -30s-21 -28.667 -28 -47s-10.5 -38.5 -10.5 -60.5v-2c0 -22 3.5 -42.167 10.5 -60.5s16.333 -34 28 -47s25.334 -23 41.001 -30s32.5 -10.5 50.5 -10.5s34.833 3.5 50.5 10.5s29.5 17 41.5 30s21.5 28.5 28.5 46.5
s10.5 38.333 10.5 61v2z" />
    <glyph glyph-name="c" unicode="c" horiz-adv-x="571" 
d="M540 86c-12.667 -14 -26.3379 -26.999 -41.0049 -38.999s-30.667 -22.333 -48 -31s-36.666 -15.5 -57.999 -20.5s-45.333 -7.5 -72 -7.5c-40 0 -77.167 7.33301 -111.5 22s-63.833 34.5 -88.5 59.5s-44 54.333 -58 88s-21 69.5 -21 107.5v2c0 38 7 74 21 108
s33.333 63.667 58 89s54.334 45.333 89.001 60s72.334 22 113.001 22c50.667 0 92.667 -8 126 -24s62.666 -38 87.999 -66l-93 -100c-17.333 18 -35.166 32.333 -53.499 43s-41.166 16 -68.499 16c-18.667 0 -36 -3.83301 -52 -11.5s-29.833 -18.167 -41.5 -31.5
s-20.667 -28.833 -27 -46.5s-9.5 -36.5 -9.5 -56.5v-2c0 -20.667 3.16699 -40 9.5 -58s15.5 -33.667 27.5 -47s26.333 -23.833 43 -31.5s35.334 -11.5 56.001 -11.5c25.333 0 47.5 5.16699 66.5 15.5s37.833 24.166 56.5 41.499z" />
    <glyph glyph-name="d" unicode="d" horiz-adv-x="675" 
d="M455 0l0.000976562 76.999c-18.667 -25.333 -41.167 -46.166 -67.5 -62.499s-59.5 -24.5 -99.5 -24.5c-31.333 0 -61.666 6 -90.999 18s-55.333 29.833 -78 53.5s-40.834 52.667 -54.501 87s-20.5 73.833 -20.5 118.5v2c0 44.667 6.83301 84.167 20.5 118.5
s31.667 63.333 54 87s48.166 41.5 77.499 53.5s60 18 92 18c40.667 0 74.167 -8 100.5 -24s48.5 -34.667 66.5 -56v264h152v-730h-152zM457.001 268.999c0 22 -3.5 42.167 -10.5 60.5s-16.333 34 -28 47s-25.334 23 -41.001 30s-32.5 10.5 -50.5 10.5
s-34.833 -3.5 -50.5 -10.5s-29.5 -17 -41.5 -30s-21.5 -28.5 -28.5 -46.5s-10.5 -38.333 -10.5 -61v-2c0 -22 3.5 -42.167 10.5 -60.5s16.5 -34 28.5 -47s25.833 -23 41.5 -30s32.5 -10.5 50.5 -10.5s34.833 3.5 50.5 10.5s29.334 17 41.001 30s21 28.667 28 47
s10.5 38.5 10.5 60.5v2z" />
    <glyph glyph-name="e" unicode="e" horiz-adv-x="613" 
d="M568 253c0 -7.33301 -0.169922 -13.667 -0.50293 -19s-0.833008 -11.666 -1.5 -18.999h-373c7.33301 -34.667 22.5 -60.834 45.5 -78.501s51.5 -26.5 85.5 -26.5c25.333 0 48 4.33301 68 13s40.667 22.667 62 42l87 -77c-25.333 -31.333 -56 -55.833 -92 -73.5
s-78.333 -26.5 -127 -26.5c-40 0 -77.167 6.66699 -111.5 20s-64 32.333 -89 57s-44.5 54 -58.5 88s-21 71.333 -21 112v2c0 38 6.5 74 19.5 108s31.167 63.667 54.5 89s51.333 45.333 84 60s68.334 22 107.001 22c44.667 0 83.334 -8 116.001 -24
s59.834 -37.5 81.501 -64.5s37.667 -58 48 -93s15.5 -71.5 15.5 -109.5v-2zM419.997 309.999c-4.66699 34 -16.667 61.501 -36 82.501s-45 31.5 -77 31.5s-57.833 -10.333 -77.5 -31s-32.5 -48.334 -38.5 -83.001h229z" />
    <glyph glyph-name="f" unicode="f" horiz-adv-x="382" 
d="M368 596c-11.333 4 -22.333 7.16797 -33 9.50098s-22.667 3.5 -36 3.5c-36.667 0 -55 -19.333 -55 -58v-21h123v-124h-121v-406h-152v406h-63v125h63v34c0 59.333 14.167 102.833 42.5 130.5s69.5 41.5 123.5 41.5c24 0 44.5 -1.33301 61.5 -4
s32.5 -6.33398 46.5 -11.001v-126z" />
    <glyph glyph-name="g" unicode="g" horiz-adv-x="675" 
d="M607 121c0 -101.333 -24.999 -173.834 -74.999 -217.501s-124.667 -65.5 -224 -65.5c-44 0 -86 4.83301 -126 14.5s-77 23.5 -111 41.5l52 114c28 -15.333 56.167 -27.333 84.5 -36s60.5 -13 96.5 -13c52 0 90.5 12.333 115.5 37s37.5 61 37.5 109v26
c-22.667 -27.333 -47.334 -48.666 -74.001 -63.999s-60.334 -23 -101.001 -23c-31.333 0 -61.333 5.5 -90 16.5s-54 27.167 -76 48.5s-39.5 47.5 -52.5 78.5s-19.5 66.5 -19.5 106.5v2c0 40 6.66699 75.5 20 106.5s31 57.167 53 78.5s47.333 37.5 76 48.5
s58.334 16.5 89.001 16.5c42 0 76.167 -7.66699 102.5 -23s49.833 -34.333 70.5 -57v70h152v-415zM457.001 295.999c0 18 -3.33008 34.667 -9.99707 50s-15.834 28.5 -27.501 39.5s-25.5 19.5 -41.5 25.5s-33.333 9 -52 9s-35.834 -3 -51.501 -9
s-29.334 -14.5 -41.001 -25.5s-20.834 -24.167 -27.501 -39.5s-10 -32 -10 -50v-2c0 -37.333 12.333 -67.333 37 -90s55.667 -34 93 -34c18.667 0 36 3 52 9s29.833 14.5 41.5 25.5s20.834 24.167 27.501 39.5s10 32 10 50v2z" />
    <glyph glyph-name="h" unicode="h" horiz-adv-x="623" 
d="M407 0l0.000976562 299c0 36 -8 63.167 -24 81.5s-38.667 27.5 -68 27.5s-52.5 -9.16699 -69.5 -27.5s-25.5 -45.5 -25.5 -81.5v-299h-152v730h152v-270c17.333 22.667 38.166 42.667 62.499 60s55.833 26 94.5 26c58 0 102.833 -17.667 134.5 -53s47.5 -84 47.5 -146
v-347h-152z" />
    <glyph glyph-name="i" unicode="i" horiz-adv-x="302" 
d="M71 595v135h160v-135h-160zM75 0v536h152v-536h-152z" />
    <glyph glyph-name="j" unicode="j" horiz-adv-x="302" 
d="M71 595v135h160v-135h-160zM227 9c0 -59.333 -14.499 -102.833 -43.499 -130.5s-71.833 -41.5 -128.5 -41.5c-14 0 -25.833 0.5 -35.5 1.5s-19.834 2.5 -30.501 4.5v119c12 -2 22.667 -3 32 -3c16 0 29 4.66699 39 14s15 25.333 15 48v515h152v-527z" />
    <glyph glyph-name="k" unicode="k" horiz-adv-x="592" 
d="M413 0l-140 219l-53 -56v-163h-152v730h152v-389l178 195h182l-204 -211l211 -325h-174z" />
    <glyph glyph-name="l" unicode="l" horiz-adv-x="302" 
d="M75 0v730h152v-730h-152z" />
    <glyph glyph-name="m" unicode="m" horiz-adv-x="950" 
d="M734 0l-0.00195312 299c0 36 -7.66699 63.167 -23 81.5s-37.333 27.5 -66 27.5s-51.167 -9.16699 -67.5 -27.5s-24.5 -45.5 -24.5 -81.5v-299h-152v299c0 36 -7.66699 63.167 -23 81.5s-37.333 27.5 -66 27.5s-51.167 -9.16699 -67.5 -27.5s-24.5 -45.5 -24.5 -81.5v-299
h-152v536h152v-76c17.333 22.667 38.333 42.667 63 60s56.334 26 95.001 26c35.333 0 65.833 -7.33301 91.5 -22s45.5 -35.667 59.5 -63c23.333 28 49.333 49.167 78 63.5s61.334 21.5 98.001 21.5c56.667 0 101 -16.667 133 -50s48 -82.333 48 -147v-349h-152z" />
    <glyph glyph-name="n" unicode="n" horiz-adv-x="623" 
d="M407 0l0.000976562 299c0 36 -8 63.167 -24 81.5s-38.667 27.5 -68 27.5s-52.5 -9.16699 -69.5 -27.5s-25.5 -45.5 -25.5 -81.5v-299h-152v536h152v-76c17.333 22.667 38.166 42.667 62.499 60s55.833 26 94.5 26c58 0 102.833 -17.667 134.5 -53s47.5 -84 47.5 -146
v-347h-152z" />
    <glyph glyph-name="o" unicode="o" horiz-adv-x="664" 
d="M622 267c0 -38.667 -7.33301 -74.834 -22 -108.501s-35 -63.167 -61 -88.5s-56.667 -45.333 -92 -60s-74 -22 -116 -22c-41.333 0 -79.666 7.16699 -114.999 21.5s-65.833 34 -91.5 59s-45.834 54.333 -60.501 88s-22 69.834 -22 108.501v2
c0 38.667 7.33301 74.834 22 108.501s35 63.167 61 88.5s56.667 45.333 92 60s74 22 116 22c41.333 0 79.666 -7.16699 114.999 -21.5s65.833 -34 91.5 -59s45.834 -54.333 60.501 -88s22 -69.834 22 -108.501v-2zM472 267c0 20 -3.33301 38.833 -10 56.5
s-16.334 33.334 -29.001 47.001s-27.5 24.5 -44.5 32.5s-36.167 12 -57.5 12c-22 0 -41.5 -3.83301 -58.5 -11.5s-31.5 -18.167 -43.5 -31.5s-21.167 -28.833 -27.5 -46.5s-9.5 -36.5 -9.5 -56.5v-2c0 -20 3.33301 -38.833 10 -56.5s16.334 -33.334 29.001 -47.001
s27.667 -24.5 45 -32.5s36.333 -12 57 -12c22 0 41.5 3.83301 58.5 11.5s31.5 18.167 43.5 31.5s21.167 28.833 27.5 46.5s9.5 36.5 9.5 56.5v2z" />
    <glyph glyph-name="p" unicode="p" horiz-adv-x="675" 
d="M631 267c0 -44.667 -6.83398 -84.166 -20.501 -118.499s-31.667 -63.333 -54 -87s-48.166 -41.5 -77.499 -53.5s-60 -18 -92 -18c-40.667 0 -74.167 8 -100.5 24s-48.5 34.667 -66.5 56v-230h-152v696h152v-77c18.667 25.333 41.167 46.166 67.5 62.499
s59.5 24.5 99.5 24.5c31.333 0 61.666 -6 90.999 -18s55.333 -29.833 78 -53.5s40.834 -52.667 54.501 -87s20.5 -73.833 20.5 -118.5v-2zM478.999 269.001c0 22 -3.5 42.167 -10.5 60.5s-16.5 34 -28.5 47s-25.833 23 -41.5 30s-32.5 10.5 -50.5 10.5
s-34.833 -3.5 -50.5 -10.5s-29.334 -17 -41.001 -30s-21 -28.667 -28 -47s-10.5 -38.5 -10.5 -60.5v-2c0 -22 3.5 -42.167 10.5 -60.5s16.333 -34 28 -47s25.334 -23 41.001 -30s32.5 -10.5 50.5 -10.5s34.833 3.5 50.5 10.5s29.5 17 41.5 30s21.5 28.5 28.5 46.5
s10.5 38.333 10.5 61v2z" />
    <glyph glyph-name="q" unicode="q" horiz-adv-x="675" 
d="M455 -160l0.000976562 236.999c-18.667 -25.333 -41.167 -46.166 -67.5 -62.499s-59.5 -24.5 -99.5 -24.5c-31.333 0 -61.666 6 -90.999 18s-55.333 29.833 -78 53.5s-40.834 52.667 -54.501 87s-20.5 73.833 -20.5 118.5v2c0 44.667 6.83301 84.167 20.5 118.5
s31.667 63.333 54 87s48.166 41.5 77.499 53.5s60 18 92 18c40.667 0 74.167 -8 100.5 -24s48.5 -34.667 66.5 -56v70h152v-696h-152zM457.001 268.999c0 22 -3.5 42.167 -10.5 60.5s-16.333 34 -28 47s-25.334 23 -41.001 30s-32.5 10.5 -50.5 10.5
s-34.833 -3.5 -50.5 -10.5s-29.5 -17 -41.5 -30s-21.5 -28.5 -28.5 -46.5s-10.5 -38.333 -10.5 -61v-2c0 -22 3.5 -42.167 10.5 -60.5s16.5 -34 28.5 -47s25.833 -23 41.5 -30s32.5 -10.5 50.5 -10.5s34.833 3.5 50.5 10.5s29.334 17 41.001 30s21 28.667 28 47
s10.5 38.5 10.5 60.5v2z" />
    <glyph glyph-name="r" unicode="r" horiz-adv-x="418" 
d="M383 387c-50.667 0 -90.5 -15.332 -119.5 -45.999s-43.5 -78.334 -43.5 -143.001v-198h-152v536h152v-108c15.333 37.333 36.333 66.833 63 88.5s62.667 31.5 108 29.5v-159h-8z" />
    <glyph glyph-name="s" unicode="s" horiz-adv-x="502" 
d="M461 163c0 -30 -5.16699 -55.833 -15.5 -77.5s-24.833 -39.5 -43.5 -53.5s-40.334 -24.5 -65.001 -31.5s-51.667 -10.5 -81 -10.5c-38 0 -76.833 6.5 -116.5 19.5s-77.5 33.5 -113.5 61.5l65 100c29.333 -21.333 58.5 -37.333 87.5 -48s56.167 -16 81.5 -16
c22 0 38.167 3.66699 48.5 11s15.5 17 15.5 29v2c0 8 -3 15 -9 21s-14.167 11.167 -24.5 15.5s-22.166 8.5 -35.499 12.5l-42 13c-18.667 5.33301 -37.5 11.833 -56.5 19.5s-36.167 17.667 -51.5 30s-27.833 27.5 -37.5 45.5s-14.5 40 -14.5 66v2
c0 27.333 5.16699 51.5 15.5 72.5s24.333 38.833 42 53.5s38.5 25.667 62.5 33s49.333 11 76 11c34 0 68.5 -5.5 103.5 -16.5s67.167 -26.167 96.5 -45.5l-58 -105c-26.667 15.333 -52.667 27.5 -78 36.5s-47.666 13.5 -66.999 13.5c-18.667 0 -32.667 -3.5 -42 -10.5
s-14 -15.833 -14 -26.5v-2c0 -7.33301 3 -13.833 9 -19.5s14 -11 24 -16s21.5 -9.66699 34.5 -14l41.5 -14.5c18.667 -6 37.667 -13.167 57 -21.5s36.666 -18.5 51.999 -30.5s28 -26.667 38 -44s15 -38.333 15 -63v-2z" />
    <glyph glyph-name="t" unicode="t" horiz-adv-x="415" 
d="M369 22c-16 -9.33301 -33.667 -16.835 -53 -22.502s-41.666 -8.5 -66.999 -8.5c-23.333 0 -44.5 2.5 -63.5 7.5s-35.333 13.833 -49 26.5s-24.334 29.334 -32.001 50.001s-11.5 46.334 -11.5 77.001v254h-64v130h64v137h152v-137h126v-130h-126v-229
c0 -34.667 16.333 -52 49 -52c26.667 0 51.667 6.33301 75 19v-122z" />
    <glyph glyph-name="u" unicode="u" horiz-adv-x="623" 
d="M403 0l-0.000976562 76c-17.333 -22.667 -38.166 -42.667 -62.499 -60s-55.833 -26 -94.5 -26c-58 0 -102.833 17.667 -134.5 53s-47.5 84 -47.5 146v347h152v-299c0 -36 8 -63.167 24 -81.5s38.667 -27.5 68 -27.5s52.5 9.16699 69.5 27.5s25.5 45.5 25.5 81.5v299h152
v-536h-152z" />
    <glyph glyph-name="v" unicode="v" horiz-adv-x="600" 
d="M369 -4h-138l-211 540h161l120 -359l121 359h158z" />
    <glyph glyph-name="w" unicode="w" horiz-adv-x="861" 
d="M670 -4h-137l-103 329l-105 -329h-136l-165 540h154l86 -325l101 327h131l102 -328l88 326h151z" />
    <glyph glyph-name="x" unicode="x" horiz-adv-x="584" 
d="M398 0l-108 167l-108 -167h-159l188 272l-181 264h163l100 -156l101 156h159l-181 -261l189 -275h-163z" />
    <glyph glyph-name="y" unicode="y" horiz-adv-x="600" 
d="M372 -13c-10 -27.333 -20.6689 -50.5 -32.002 -69.5s-23.833 -34.5 -37.5 -46.5s-29.167 -20.667 -46.5 -26s-37.333 -8 -60 -8c-28 0 -52.667 3.33301 -74 10s-41.666 15.667 -60.999 27l51 110c10 -6 20.833 -11 32.5 -15s22.5 -6 32.5 -6
c13.333 0 23.833 2.5 31.5 7.5s14.834 14.167 21.501 27.5l-210 538h161l122 -365l117 365h158z" />
    <glyph glyph-name="z" unicode="z" horiz-adv-x="563" 
d="M50 0v107l277 306h-268v123h457v-107l-278 -306h278v-123h-466z" />
    <glyph glyph-name="braceleft" unicode="{" horiz-adv-x="490" 
d="M443 614c-26.667 -7.33301 -48 -14.835 -64 -22.502s-28.333 -16.167 -37 -25.5s-14.334 -19.666 -17.001 -30.999s-4 -24.666 -4 -39.999c0 -10 0.5 -22.167 1.5 -36.5s1.5 -26.833 1.5 -37.5c0 -36.667 -8.83301 -65.334 -26.5 -86.001s-43.5 -36.667 -77.5 -48
c34 -11.333 59.833 -27.333 77.5 -48s26.5 -49.334 26.5 -86.001c0 -10.667 -0.5 -23.167 -1.5 -37.5s-1.5 -26.5 -1.5 -36.5c0 -15.333 1.33301 -28.666 4 -39.999s8.33398 -21.666 17.001 -30.999s21 -17.833 37 -25.5s37.333 -15.167 64 -22.5l-27 -101
c-46 8 -84 18 -114 30s-53.833 26.167 -71.5 42.5s-30.167 35 -37.5 56s-11 44.167 -11 69.5c0 7.33301 0.5 18.5 1.5 33.5s1.5 26.833 1.5 35.5c0 39.333 -8.5 66.333 -25.5 81s-45.167 22 -84.5 22h-26v116h26c39.333 0 67.5 7.33301 84.5 22s25.5 41.667 25.5 81
c0 8.66699 -0.5 20.5 -1.5 35.5s-1.5 26.167 -1.5 33.5c0 25.333 3.66699 48.5 11 69.5s19.833 39.667 37.5 56s41.5 30.5 71.5 42.5s68 22 114 30z" />
    <glyph glyph-name="bar" unicode="|" horiz-adv-x="350" 
d="M115 -128v926h120v-926h-120z" />
    <glyph glyph-name="braceright" unicode="}" horiz-adv-x="490" 
d="M415 229c-39.333 0 -67.5 -7.33105 -84.5 -21.998s-25.5 -41.667 -25.5 -81c0 -8.66699 0.5 -20.5 1.5 -35.5s1.5 -26.167 1.5 -33.5c0 -25.333 -3.66699 -48.5 -11 -69.5s-19.833 -39.667 -37.5 -56s-41.5 -30.5 -71.5 -42.5s-68 -22 -114 -30l-27 101
c26.667 7.33301 48 14.833 64 22.5s28.333 16.167 37 25.5s14.334 19.666 17.001 30.999s4 24.666 4 39.999c0 10 -0.5 22.167 -1.5 36.5s-1.5 26.833 -1.5 37.5c0 36.667 8.83301 65.334 26.5 86.001s43.5 36.667 77.5 48c-34 11.333 -59.833 27.333 -77.5 48
s-26.5 49.334 -26.5 86.001c0 10.667 0.5 23.167 1.5 37.5s1.5 26.5 1.5 36.5c0 15.333 -1.33301 28.666 -4 39.999s-8.33398 21.666 -17.001 30.999s-21 17.833 -37 25.5s-37.333 15.167 -64 22.5l27 101c46 -8 84 -18 114 -30s53.833 -26.167 71.5 -42.5
s30.167 -35 37.5 -56s11 -44.167 11 -69.5c0 -7.33301 -0.5 -18.5 -1.5 -33.5s-1.5 -26.833 -1.5 -35.5c0 -39.333 8.5 -66.333 25.5 -81s45.167 -22 84.5 -22h26v-116h-26z" />
    <glyph glyph-name="asciitilde" unicode="~" horiz-adv-x="510" 
d="M461 372c-11.333 -42 -25.999 -75.5 -43.999 -100.5s-44.667 -37.5 -80 -37.5c-15.333 0 -30.166 2 -44.499 6s-27.833 8.5 -40.5 13.5l-35 13.5c-10.667 4 -20.667 6 -30 6c-15.333 0 -26.833 -4.16699 -34.5 -12.5s-15.167 -20.5 -22.5 -36.5l-81 25
c11.333 42 26.166 75.5 44.499 100.5s44.833 37.5 79.5 37.5c15.333 0 30.166 -2 44.499 -6s27.833 -8.5 40.5 -13.5l35.5 -13.5c11 -4 20.833 -6 29.5 -6c15.333 0 26.833 4.16699 34.5 12.5s15.167 20.5 22.5 36.5z" />
    <glyph glyph-name="nonbreakingspace" unicode="&#xa0;" horiz-adv-x="300" 
 />
    <glyph glyph-name="exclamdown" unicode="&#xa1;" horiz-adv-x="324" 
d="M243 700v-160h-162v160h162zM73 0v20l47 442h84l47 -442v-20h-178z" />
    <glyph glyph-name="cent" unicode="&#xa2;" horiz-adv-x="581" 
d="M348 208c21.333 2.66699 40.668 8.83105 58.001 18.498s34 22.167 50 37.5l86 -87c-26 -29.333 -56 -53.166 -90 -71.499s-75.333 -28.166 -124 -29.499l-16 -82h-104l19 98c-26.667 10 -51 23.5 -73 40.5s-41 36.833 -57 59.5s-28.333 47.834 -37 75.501
s-13 56.5 -13 86.5c0 38.667 7 75 21 109s33.333 63.667 58 89s54.167 45.333 88.5 60s71.833 22 112.5 22h6l14 72h104l-17 -88c22 -7.33301 41.667 -17.333 59 -30s33.666 -27.334 48.999 -44.001l-90 -97c-8 8 -15.833 15 -23.5 21s-16.167 11.333 -25.5 16z
M312.002 502.997c-17.333 -1.33301 -33.333 -6.16797 -48 -14.501s-27.167 -19.166 -37.5 -32.499s-18.333 -28.5 -24 -45.5s-8.5 -35.167 -8.5 -54.5c0 -28 5.5 -53.333 16.5 -76s26.833 -40.667 47.5 -54z" />
    <glyph glyph-name="sterling" unicode="&#xa3;" horiz-adv-x="644" 
d="M136 475c0 74 20.332 131.667 60.999 173s99.334 62 176.001 62c28 0 53.333 -3 76 -9s43 -14.167 61 -24.5s34.167 -22.5 48.5 -36.5s27.5 -29 39.5 -45l-117 -94c-17.333 22 -34 38.5 -50 49.5s-34.667 16.5 -56 16.5c-25.333 0 -45.5 -8.5 -60.5 -25.5
s-22.5 -40.5 -22.5 -70.5v-77h228v-127h-228v-134h304v-133h-536v101l76 25v141h-76v127h76v81z" />
    <glyph glyph-name="currency" unicode="&#xa4;" horiz-adv-x="720" 
d="M49 386l-0.000976562 101h94c10 33.333 24 63.666 42 90.999s39.167 51 63.5 71s52.166 35.5 83.499 46.5s65.333 16.5 102 16.5c31.333 0 59.166 -3.16699 83.499 -9.5s46.333 -15.166 66 -26.499s37.334 -24.833 53.001 -40.5s30.167 -32.834 43.5 -51.501l-116 -88
c-19.333 25.333 -39 44.833 -59 58.5s-44.667 20.5 -74 20.5c-30 0 -55.5 -7.66699 -76.5 -23s-37.833 -37 -50.5 -65h184v-101h-208c-0.666992 -5.33301 -1 -11 -1 -17v-18v-16.5c0 -5.66699 0.333008 -11.167 1 -16.5h208v-101h-186
c12.667 -30 30.334 -52.833 53.001 -68.5s50 -23.5 82 -23.5c29.333 0 53.666 6.83301 72.999 20.5s40 34.167 62 61.5l110 -81c-29.333 -41.333 -63.166 -74.666 -101.499 -99.999s-86.166 -38 -143.499 -38c-38 0 -73 5.5 -105 16.5s-60.5 26.5 -85.5 46.5
s-46.333 44.167 -64 72.5s-31.5 59.5 -41.5 93.5h-92v101h75c-0.666992 5.33301 -1 10.5 -1 15.5v15.5v18.5c0 6.33301 0.333008 12.5 1 18.5h-75z" />
    <glyph glyph-name="yen" unicode="&#xa5;" horiz-adv-x="686" 
d="M417 200h184v-108h-184v-92h-148v92h-184v108h184v62h-184v108h143l-214 330h177l154 -259l155 259h172l-216 -330h145v-108h-184v-62z" />
    <glyph glyph-name="section" unicode="&#xa7;" horiz-adv-x="632" 
d="M577 356c0 -33.333 -8.5 -59 -25.5 -77s-38.167 -31.667 -63.5 -41c14.667 -11.333 25.334 -25.166 32.001 -41.499s10 -33.166 10 -50.499c0 -48 -17.833 -86 -53.5 -114s-86.167 -42 -151.5 -42c-51.333 0 -96 8.16699 -134 24.5s-71 39.833 -99 70.5l82 82
c23.333 -21.333 46.666 -37.666 69.999 -48.999s49 -17 77 -17c22.667 0 39.334 3.33301 50.001 10s16 15.667 16 27c0 6 -1.33301 11.167 -4 15.5s-7.83398 8.66602 -15.501 12.999s-18.667 8.66602 -33 12.999s-33.5 9.16602 -57.5 14.499
c-39.333 8.66699 -73 17.834 -101 27.501s-51 20.334 -69 32.001s-31.167 24.834 -39.5 39.501s-12.5 31.667 -12.5 51c0 33.333 8.5 59 25.5 77s38.167 31.667 63.5 41c-14.667 11.333 -25.334 25.166 -32.001 41.499s-10 33.166 -10 50.499c0 48 17.833 86 53.5 114
s86.167 42 151.5 42c51.333 0 96 -8.16699 134 -24.5s71 -39.833 99 -70.5l-82 -82c-23.333 21.333 -46.666 37.666 -69.999 48.999s-49 17 -77 17c-22.667 0 -39.334 -3.33301 -50.001 -10s-16 -15.667 -16 -27c0 -6 1.33301 -11.167 4 -15.5
s7.83398 -8.66602 15.501 -12.999s18.667 -8.66602 33 -12.999s33.5 -9.16602 57.5 -14.499c39.333 -8.66699 73 -17.834 101 -27.501s51 -20.334 69 -32.001s31.167 -24.834 39.5 -39.501s12.5 -31.667 12.5 -51zM444 334c0 13.333 -8.16699 24.333 -24.5 33
s-41.833 17.334 -76.5 26.001c-26 6.66699 -46.5 11.334 -61.5 14.001s-27.833 4 -38.5 4c-17.333 0 -30.833 -4.16699 -40.5 -12.5s-14.5 -19.166 -14.5 -32.499s8.16699 -24.333 24.5 -33s41.833 -17.334 76.5 -26.001c26 -6.66699 46.5 -11.334 61.5 -14.001
s27.833 -4 38.5 -4c17.333 0 30.833 4.16699 40.5 12.5s14.5 19.166 14.5 32.499z" />
    <glyph glyph-name="dieresis" unicode="&#xa8;" 
d="M284 595v135h146v-135h-146zM70 595v135h146v-135h-146z" />
    <glyph glyph-name="copyright" unicode="&#xa9;" horiz-adv-x="830" 
d="M777 351c0 -49.333 -9.33301 -96 -28 -140s-44.334 -82.5 -77.001 -115.5s-71.167 -59.167 -115.5 -78.5s-91.833 -29 -142.5 -29s-98 9.5 -142 28.5s-82.167 44.833 -114.5 77.5s-57.833 71 -76.5 115s-28 90.667 -28 140s9.33301 96 28 140s44.334 82.5 77.001 115.5
s71.167 59.167 115.5 78.5s91.833 29 142.5 29s98 -9.5 142 -28.5s82.167 -44.833 114.5 -77.5s57.833 -71 76.5 -115s28 -90.667 28 -140zM735 351c0 44.667 -7.99902 86.5 -23.999 125.5s-38.333 73 -67 102s-62.5 51.833 -101.5 68.5s-81.167 25 -126.5 25
c-46 0 -88.5 -8.5 -127.5 -25.5s-72.833 -40.167 -101.5 -69.5s-51.167 -63.5 -67.5 -102.5s-24.5 -80.833 -24.5 -125.5s8.16699 -86.5 24.5 -125.5s38.666 -73 66.999 -102s62 -51.833 101 -68.5s81.167 -25 126.5 -25c46 0 88.5 8.5 127.5 25.5s72.833 40.167 101.5 69.5
s51.167 63.5 67.5 102.5s24.5 80.833 24.5 125.5zM577.001 225c-20 -21.333 -42.002 -38.1641 -66.002 -50.4971s-54.667 -18.5 -92 -18.5c-28 0 -54.167 5.16699 -78.5 15.5s-45.166 24.333 -62.499 42s-31 38.5 -41 62.5s-15 50 -15 78
c0 27.333 4.83301 53.166 14.5 77.499s23.334 45.5 41.001 63.5s38.834 32.333 63.501 43s51.667 16 81 16c36.667 0 66.667 -5.5 90 -16.5s44 -25.167 62 -42.5l-55 -64c-14.667 13.333 -29.834 23.833 -45.501 31.5s-32.834 11.5 -51.501 11.5
c-16 0 -30.667 -3.16699 -44 -9.5s-25 -14.833 -35 -25.5s-17.667 -23.167 -23 -37.5s-8 -29.833 -8 -46.5c0 -16 2.66699 -31.333 8 -46s12.833 -27.334 22.5 -38.001s21.334 -19.167 35.001 -25.5s28.5 -9.5 44.5 -9.5c21.333 0 39.333 4.16699 54 12.5
s29.667 19.166 45 32.499z" />
    <glyph glyph-name="ordfeminine" unicode="&#xaa;" horiz-adv-x="390" 
d="M242 405l0.000976562 32.001c-10 -11.333 -22.167 -20.5 -36.5 -27.5s-31.833 -10.5 -52.5 -10.5c-28 0 -51.833 7.66699 -71.5 23s-29.5 38 -29.5 68c0 32.667 11 56.667 33 72s50.667 23 86 23c14.667 0 27.667 -1.16699 39 -3.5s22.333 -5.16602 33 -8.49902v5
c0 17.333 -5.33301 30.666 -16 39.999s-26.667 14 -48 14c-15.333 0 -29.333 -1.33301 -42 -4s-25.667 -6.66699 -39 -12l-21 63c16.667 7.33301 33.667 13.166 51 17.499s38.666 6.5 63.999 6.5c46 0 79.333 -11.167 100 -33.5s31 -53.5 31 -93.5v-171h-81zM49.001 277.001
v66h278v-66h-278zM244.001 524.001c-7.33301 3.33301 -15.499 6 -24.499 8s-18.833 3 -29.5 3c-17.333 0 -31.166 -3.5 -41.499 -10.5s-15.5 -17.167 -15.5 -30.5c0 -12 4.16699 -21.167 12.5 -27.5s19.166 -9.5 32.499 -9.5c19.333 0 35.166 4.83301 47.499 14.5
s18.5 22.167 18.5 37.5v15z" />
    <glyph glyph-name="guillemotleft" unicode="&#xab;" horiz-adv-x="645" 
d="M597 440l-130 -171l130 -171l-116 -58l-168 224v8l168 224zM325 440l-130 -171l130 -171l-116 -58l-168 224v8l168 224z" />
    <glyph glyph-name="registered" unicode="&#xae;" horiz-adv-x="830" 
d="M777 351c0 -49.333 -9.33301 -96 -28 -140s-44.334 -82.5 -77.001 -115.5s-71.167 -59.167 -115.5 -78.5s-91.833 -29 -142.5 -29s-98 9.5 -142 28.5s-82.167 44.833 -114.5 77.5s-57.833 71 -76.5 115s-28 90.667 -28 140s9.33301 96 28 140s44.334 82.5 77.001 115.5
s71.167 59.167 115.5 78.5s91.833 29 142.5 29s98 -9.5 142 -28.5s82.167 -44.833 114.5 -77.5s57.833 -71 76.5 -115s28 -90.667 28 -140zM735 351c0 44.667 -7.99902 86.5 -23.999 125.5s-38.333 73 -67 102s-62.5 51.833 -101.5 68.5s-81.167 25 -126.5 25
c-46 0 -88.5 -8.5 -127.5 -25.5s-72.833 -40.167 -101.5 -69.5s-51.167 -63.5 -67.5 -102.5s-24.5 -80.833 -24.5 -125.5s8.16699 -86.5 24.5 -125.5s38.666 -73 66.999 -102s62 -51.833 101 -68.5s81.167 -25 126.5 -25c46 0 88.5 8.5 127.5 25.5s72.833 40.167 101.5 69.5
s51.167 63.5 67.5 102.5s24.5 80.833 24.5 125.5zM588.001 426c0 -32 -7.66699 -57.668 -23 -77.001s-35.333 -33.666 -60 -42.999l94 -138h-99l-82 124h-67v-124h-85v385h171c46 0 82.667 -11.167 110 -33.5s41 -53.5 41 -93.5zM502.001 420.999
c0 19.333 -5.99902 33.667 -17.999 43s-28.667 14 -50 14h-83v-113h85c21.333 0 37.666 5.16699 48.999 15.5s17 23.833 17 40.5z" />
    <glyph glyph-name="macron" unicode="&#xaf;" 
d="M70 600v105h360v-105h-360z" />
    <glyph glyph-name="degree" unicode="&#xb0;" horiz-adv-x="480" 
d="M413 537c0 -22.667 -4.66699 -44.167 -14 -64.5s-22 -38.333 -38 -54s-34.5 -28 -55.5 -37s-42.833 -13.5 -65.5 -13.5s-44.5 4.5 -65.5 13.5s-39.5 21.333 -55.5 37s-28.667 33.667 -38 54s-14 41.833 -14 64.5s4.66699 44.167 14 64.5s22 38.333 38 54s34.5 28 55.5 37
s42.833 13.5 65.5 13.5s44.5 -4.5 65.5 -13.5s39.5 -21.333 55.5 -37s28.667 -33.667 38 -54s14 -41.833 14 -64.5zM332 537c0 25.333 -8.66699 47.333 -26 66s-39.333 28 -66 28s-48.667 -9.33301 -66 -28s-26 -40.667 -26 -66s8.66699 -47.333 26 -66s39.333 -28 66 -28
s48.667 9.33301 66 28s26 40.667 26 66z" />
    <glyph glyph-name="plusminus" unicode="&#xb1;" horiz-adv-x="614" 
d="M570 207c0 -31.333 -5.66602 -60.333 -16.999 -87s-27.833 -49.834 -49.5 -69.501s-48.334 -35 -80.001 -46s-68.167 -16.5 -109.5 -16.5c-58 0 -110.167 10.667 -156.5 32s-86.5 50.333 -120.5 87l103 100c23.333 -24.667 49 -44.334 77 -59.001s61 -22 99 -22
c33.333 0 58.833 7.5 76.5 22.5s26.5 35.167 26.5 60.5c0 26.667 -11.5 46.667 -34.5 60s-55.5 20 -97.5 20h-77v128h81c36 0 63.167 7.66699 81.5 23s27.5 35 27.5 59c0 22 -8.83301 40 -26.5 54s-42.5 21 -74.5 21c-30 0 -56 -7.5 -78 -22.5s-43.667 -34.5 -65 -58.5
l-106 90c16 20 32.333 37.833 49 53.5s35 29.167 55 40.5s42 20 66 26s51 9 81 9c38 0 72.333 -4.66699 103 -14s57 -22.333 79 -39s38.833 -36.5 50.5 -59.5s17.5 -48.5 17.5 -76.5c0 -42.667 -8.5 -76.667 -25.5 -102s-39.167 -45.666 -66.5 -60.999
c32 -14 58.5 -32.667 79.5 -56s31.5 -55.666 31.5 -96.999z" />
    <glyph glyph-name="acute" unicode="&#xb4;" 
d="M146 595l113 177l131 -57l-128 -120h-116z" />
    <glyph glyph-name="mu" unicode="&#xb5;" horiz-adv-x="850" 
d="M797 351c0 -51.333 -10 -99.5 -30 -144.5s-48 -84.167 -84 -117.5l178 -180v-10h-226l-105 103c-34 -9.33301 -69.333 -14 -106 -14c-54 0 -103.667 9.5 -149 28.5s-84.5 44.667 -117.5 77s-58.667 70.5 -77 114.5s-27.5 91 -27.5 141s9.33301 97 28 141
s44.5 82.5 77.5 115.5s72.333 59 118 78s95.5 28.5 149.5 28.5s103.667 -9.5 149 -28.5s84.5 -44.667 117.5 -77s58.667 -70.5 77 -114.5s27.5 -91 27.5 -141zM636 349c0 30 -5.16699 58.5 -15.5 85.5s-25 50.5 -44 70.5s-41.333 35.833 -67 47.5s-54.167 17.5 -85.5 17.5
c-30.667 0 -59 -5.66699 -85 -17s-48.167 -27 -66.5 -47s-32.666 -43.333 -42.999 -70s-15.5 -55 -15.5 -85s5.16699 -58.5 15.5 -85.5s25 -50.5 44 -70.5s41.5 -35.833 67.5 -47.5s54.333 -17.5 85 -17.5c31.333 0 59.833 5.66699 85.5 17s47.667 27 66 47
s32.666 43.333 42.999 70s15.5 55 15.5 85z" />
    <glyph glyph-name="paragraph" unicode="&#xb6;" horiz-adv-x="590" 
d="M506 700l0.000976562 -700.001h-154v230h-24c-42 0 -80.833 4.83301 -116.5 14.5s-66.667 24.334 -93 44.001s-46.833 44.167 -61.5 73.5s-22 63.333 -22 102c0 37.333 6.66699 70.5 20 99.5s32.166 53.667 56.499 74s53.5 35.833 87.5 46.5s71.333 16 112 16h195z" />
    <glyph glyph-name="periodcentered" unicode="&#xb7;" horiz-adv-x="286" 
d="M62 230v160h162v-160h-162z" />
    <glyph glyph-name="cedilla" unicode="&#xb8;" 
d="M319 10l-74 -183l-127 53l89 130h112z" />
    <glyph glyph-name="ordmasculine" unicode="&#xba;" horiz-adv-x="390" 
d="M349 552c0 -21.333 -4 -41.333 -12 -60s-18.833 -35 -32.5 -49s-30 -25 -49 -33s-39.5 -12 -61.5 -12s-42.333 4 -61 12s-34.834 18.833 -48.501 32.5s-24.334 29.834 -32.001 48.501s-11.5 38.667 -11.5 60s4 41.333 12 60s18.833 35 32.5 49s30 25 49 33
s39.5 12 61.5 12s42.333 -4 61 -12s34.834 -18.833 48.501 -32.5s24.334 -29.834 32.001 -48.501s11.5 -38.667 11.5 -60zM51 277v66h288v-66h-288zM267 551c0 22 -6.66699 41.167 -20 57.5s-31 24.5 -53 24.5s-39.333 -8 -52 -24s-19 -35 -19 -57s6.66699 -41.167 20 -57.5
s31 -24.5 53 -24.5s39.333 8 52 24s19 35 19 57z" />
    <glyph glyph-name="guillemotright" unicode="&#xbb;" horiz-adv-x="645" 
d="M320 96l130 171l-130 171l116 58l168 -224v-8l-168 -224zM48 96l130 171l-130 171l116 58l168 -224v-8l-168 -224z" />
    <glyph glyph-name="questiondown" unicode="&#xbf;" horiz-adv-x="544" 
d="M380 700v-160h-162v160h162zM365 295c-63.333 -2.66699 -108.331 -11.833 -134.998 -27.5s-40 -37.167 -40 -64.5c0 -23.333 8 -41.166 24 -53.499s38.667 -18.5 68 -18.5c28 0 54.167 5.66699 78.5 17s48.166 28.666 71.499 51.999l92 -101
c-29.333 -32 -63.833 -58 -103.5 -78s-86.834 -30 -141.501 -30c-36 0 -68.833 4.5 -98.5 13.5s-55.167 22.333 -76.5 40s-37.833 39.5 -49.5 65.5s-17.5 55.667 -17.5 89c0 32 5.16699 59.5 15.5 82.5s24.333 42.5 42 58.5s38.5 28.833 62.5 38.5s49.667 17.167 77 22.5
l11 61h102l23 -162z" />
    <glyph glyph-name="Agrave" unicode="&#xc0;" horiz-adv-x="790" 
d="M605 0l-64 157h-296l-64 -157h-157l300 705h142l300 -705h-161zM393 520l-93 -227h186zM343 755l-128 120l131 57l113 -177h-116z" />
    <glyph glyph-name="Aacute" unicode="&#xc1;" horiz-adv-x="790" 
d="M605 0l-64 157h-296l-64 -157h-157l300 705h142l300 -705h-161zM393 520l-93 -227h186zM331 755l113 177l131 -57l-128 -120h-116z" />
    <glyph glyph-name="Acircumflex" unicode="&#xc2;" horiz-adv-x="790" 
d="M605 0l-64 157h-296l-64 -157h-157l300 705h142l300 -705h-161zM393 520l-93 -227h186zM315 755h-115l123 157h144l123 -157h-117l-79 66z" />
    <glyph glyph-name="Atilde" unicode="&#xc3;" horiz-adv-x="790" 
d="M605 0l-64 157h-296l-64 -157h-157l300 705h142l300 -705h-161zM393 520l-93 -227h186zM601 893c-11.333 -42 -25.999 -75.5 -43.999 -100.5s-44.667 -37.5 -80 -37.5c-15.333 0 -30.166 2 -44.499 6s-27.833 8.5 -40.5 13.5l-35 13.5c-10.667 4 -20.667 6 -30 6
c-15.333 0 -26.833 -4.16699 -34.5 -12.5s-15.167 -20.5 -22.5 -36.5l-81 25c11.333 42 26.166 75.5 44.499 100.5s44.833 37.5 79.5 37.5c15.333 0 30.166 -2 44.499 -6s27.833 -8.5 40.5 -13.5l35.5 -13.5c11 -4 20.833 -6 29.5 -6c15.333 0 26.833 4.16699 34.5 12.5
s15.167 20.5 22.5 36.5z" />
    <glyph glyph-name="Adieresis" unicode="&#xc4;" horiz-adv-x="790" 
d="M605 0l-64 157h-296l-64 -157h-157l300 705h142l300 -705h-161zM393 520l-93 -227h186zM429 755v135h146v-135h-146zM215 755v135h146v-135h-146z" />
    <glyph glyph-name="Aring" unicode="&#xc5;" horiz-adv-x="790" 
d="M605 0l-63.998 157h-296l-64 -157h-157l292 687c-12.667 11.333 -22.834 24.5 -30.501 39.5s-11.5 31.167 -11.5 48.5c0 16 3.33301 31.167 10 45.5s15.5 26.666 26.5 36.999s23.833 18.666 38.5 24.999s30 9.5 46 9.5s31.333 -3.16699 46 -9.5
s27.5 -14.666 38.5 -24.999s19.833 -22.666 26.5 -36.999s10 -29.5 10 -45.5c0 -17.333 -3.83301 -33.5 -11.5 -48.5s-17.834 -28.167 -30.501 -39.5l292 -687h-161zM457.002 775c0 17.333 -6 32 -18 44s-26.667 18 -44 18s-32 -6 -44 -18s-18 -26.667 -18 -44s6 -32 18 -44
s26.667 -18 44 -18s32 6 44 18s18 26.667 18 44zM393.002 520l-93 -227h186z" />
    <glyph glyph-name="AE" unicode="&#xc6;" horiz-adv-x="1045" 
d="M484 0v157h-235l-83 -157h-157l377 700h601v-137h-350v-142h305v-137h-305v-147h355v-137h-508zM484 567h-18l-145 -274h163v274z" />
    <glyph glyph-name="Ccedilla" unicode="&#xc7;" horiz-adv-x="738" 
d="M326 -2c-40 9.33301 -76.8359 24.666 -110.503 45.999s-62.5 47.5 -86.5 78.5s-42.667 65.667 -56 104s-20 79.166 -20 122.499c0 50 9 97 27 141s43 82.5 75 115.5s70.333 59 115 78s94 28.5 148 28.5c33.333 0 63.333 -2.66699 90 -8s51 -12.666 73 -21.999
s42.333 -20.666 61 -33.999s36 -28 52 -44l-98 -113c-27.333 24.667 -55.166 44 -83.499 58s-60.166 21 -95.499 21c-29.333 0 -56.5 -5.66699 -81.5 -17s-46.5 -27 -64.5 -47s-32 -43.333 -42 -70s-15 -55 -15 -85s5 -58.5 15 -85.5s23.833 -50.5 41.5 -70.5
s39 -35.833 64 -47.5s52.5 -17.5 82.5 -17.5c40 0 73.833 7.5 101.5 22.5s55.167 34.833 82.5 59.5l98 -99c-33.333 -36 -70.166 -65 -110.499 -87s-90.5 -34.333 -150.5 -37l-65 -162l-127 53z" />
    <glyph glyph-name="Egrave" unicode="&#xc8;" horiz-adv-x="670" 
d="M84 0v700h528v-137h-375v-142h330v-137h-330v-147h380v-137h-533zM317 755l-128 120l131 57l113 -177h-116z" />
    <glyph glyph-name="Eacute" unicode="&#xc9;" horiz-adv-x="670" 
d="M84 0v700h528v-137h-375v-142h330v-137h-330v-147h380v-137h-533zM264 755l113 177l131 -57l-128 -120h-116z" />
    <glyph glyph-name="Ecircumflex" unicode="&#xca;" horiz-adv-x="670" 
d="M84 0v700h528v-137h-375v-142h330v-137h-330v-147h380v-137h-533zM266 755h-115l123 157h144l123 -157h-117l-79 66z" />
    <glyph glyph-name="Edieresis" unicode="&#xcb;" horiz-adv-x="670" 
d="M84 0v700h528v-137h-375v-142h330v-137h-330v-147h380v-137h-533zM380 755v135h146v-135h-146zM166 755v135h146v-135h-146z" />
    <glyph glyph-name="Igrave" unicode="&#xcc;" horiz-adv-x="336" 
d="M91 0v700h154v-700h-154zM116 755l-128 120l131 57l113 -177h-116z" />
    <glyph glyph-name="Iacute" unicode="&#xcd;" horiz-adv-x="336" 
d="M91 0v700h154v-700h-154zM104 755l113 177l131 -57l-128 -120h-116z" />
    <glyph glyph-name="Icircumflex" unicode="&#xce;" horiz-adv-x="336" 
d="M91 0v700h154v-700h-154zM88 755h-115l123 157h144l123 -157h-117l-79 66z" />
    <glyph glyph-name="Idieresis" unicode="&#xcf;" horiz-adv-x="336" 
d="M91 0v700h154v-700h-154zM202 755v135h146v-135h-146zM-12 755v135h146v-135h-146z" />
    <glyph glyph-name="Eth" unicode="&#xd0;" horiz-adv-x="812" 
d="M39 284v136.001h75v280h273c55.333 0 105.666 -8.83301 150.999 -26.5s84.5 -42.167 117.5 -73.5s58.5 -68.333 76.5 -111s27 -88.667 27 -138s-9 -95.333 -27 -138s-43.5 -79.834 -76.5 -111.501s-72.167 -56.5 -117.5 -74.5s-95.666 -27 -150.999 -27h-273v284h-75z
M418 420.001v-136.001h-152v-145h121c31.333 0 60 5 86 15s48.333 24.333 67 43s33 40.834 43 66.501s15 54.167 15 85.5s-5 60 -15 86s-24.333 48.333 -43 67s-41 33.167 -67 43.5s-54.667 15.5 -86 15.5h-121v-141h152z" />
    <glyph glyph-name="Ntilde" unicode="&#xd1;" horiz-adv-x="790" 
d="M575 0l-339 445v-445h-152v700h142l328 -431v431h152v-700h-131zM601 893c-11.333 -42 -25.999 -75.5 -43.999 -100.5s-44.667 -37.5 -80 -37.5c-15.333 0 -30.166 2 -44.499 6s-27.833 8.5 -40.5 13.5l-35 13.5c-10.667 4 -20.667 6 -30 6
c-15.333 0 -26.833 -4.16699 -34.5 -12.5s-15.167 -20.5 -22.5 -36.5l-81 25c11.333 42 26.166 75.5 44.499 100.5s44.833 37.5 79.5 37.5c15.333 0 30.166 -2 44.499 -6s27.833 -8.5 40.5 -13.5l35.5 -13.5c11 -4 20.833 -6 29.5 -6c15.333 0 26.833 4.16699 34.5 12.5
s15.167 20.5 22.5 36.5z" />
    <glyph glyph-name="Ograve" unicode="&#xd2;" horiz-adv-x="850" 
d="M797 350c0 -50 -9.33301 -96.833 -28 -140.5s-44.5 -82 -77.5 -115s-72.333 -59 -118 -78s-95.5 -28.5 -149.5 -28.5s-103.667 9.5 -149 28.5s-84.5 44.667 -117.5 77s-58.667 70.333 -77 114s-27.5 90.5 -27.5 140.5v2c0 50 9.33301 96.833 28 140.5s44.5 82 77.5 115
s72.333 59 118 78s95.5 28.5 149.5 28.5s103.667 -9.5 149 -28.5s84.5 -44.667 117.5 -77s58.667 -70.333 77 -114s27.5 -90.5 27.5 -140.5v-2zM636 350c0 30 -5.16699 58.333 -15.5 85s-25 50 -44 70s-41.333 35.833 -67 47.5s-54.167 17.5 -85.5 17.5
c-30.667 0 -59 -5.66699 -85 -17s-48.167 -27 -66.5 -47s-32.666 -43.167 -42.999 -69.5s-15.5 -54.5 -15.5 -84.5v-2c0 -30 5.16699 -58.333 15.5 -85s25 -50 44 -70s41.5 -35.833 67.5 -47.5s54.333 -17.5 85 -17.5c31.333 0 59.833 5.66699 85.5 17s47.667 27 66 47
s32.666 43.167 42.999 69.5s15.5 54.5 15.5 84.5v2zM363 755l-128 120l131 57l113 -177h-116z" />
    <glyph glyph-name="Oacute" unicode="&#xd3;" horiz-adv-x="850" 
d="M797 350c0 -50 -9.33301 -96.833 -28 -140.5s-44.5 -82 -77.5 -115s-72.333 -59 -118 -78s-95.5 -28.5 -149.5 -28.5s-103.667 9.5 -149 28.5s-84.5 44.667 -117.5 77s-58.667 70.333 -77 114s-27.5 90.5 -27.5 140.5v2c0 50 9.33301 96.833 28 140.5s44.5 82 77.5 115
s72.333 59 118 78s95.5 28.5 149.5 28.5s103.667 -9.5 149 -28.5s84.5 -44.667 117.5 -77s58.667 -70.333 77 -114s27.5 -90.5 27.5 -140.5v-2zM636 350c0 30 -5.16699 58.333 -15.5 85s-25 50 -44 70s-41.333 35.833 -67 47.5s-54.167 17.5 -85.5 17.5
c-30.667 0 -59 -5.66699 -85 -17s-48.167 -27 -66.5 -47s-32.666 -43.167 -42.999 -69.5s-15.5 -54.5 -15.5 -84.5v-2c0 -30 5.16699 -58.333 15.5 -85s25 -50 44 -70s41.5 -35.833 67.5 -47.5s54.333 -17.5 85 -17.5c31.333 0 59.833 5.66699 85.5 17s47.667 27 66 47
s32.666 43.167 42.999 69.5s15.5 54.5 15.5 84.5v2zM371 755l113 177l131 -57l-128 -120h-116z" />
    <glyph glyph-name="Ocircumflex" unicode="&#xd4;" horiz-adv-x="850" 
d="M797 350c0 -50 -9.33301 -96.833 -28 -140.5s-44.5 -82 -77.5 -115s-72.333 -59 -118 -78s-95.5 -28.5 -149.5 -28.5s-103.667 9.5 -149 28.5s-84.5 44.667 -117.5 77s-58.667 70.333 -77 114s-27.5 90.5 -27.5 140.5v2c0 50 9.33301 96.833 28 140.5s44.5 82 77.5 115
s72.333 59 118 78s95.5 28.5 149.5 28.5s103.667 -9.5 149 -28.5s84.5 -44.667 117.5 -77s58.667 -70.333 77 -114s27.5 -90.5 27.5 -140.5v-2zM636 350c0 30 -5.16699 58.333 -15.5 85s-25 50 -44 70s-41.333 35.833 -67 47.5s-54.167 17.5 -85.5 17.5
c-30.667 0 -59 -5.66699 -85 -17s-48.167 -27 -66.5 -47s-32.666 -43.167 -42.999 -69.5s-15.5 -54.5 -15.5 -84.5v-2c0 -30 5.16699 -58.333 15.5 -85s25 -50 44 -70s41.5 -35.833 67.5 -47.5s54.333 -17.5 85 -17.5c31.333 0 59.833 5.66699 85.5 17s47.667 27 66 47
s32.666 43.167 42.999 69.5s15.5 54.5 15.5 84.5v2zM345 755h-115l123 157h144l123 -157h-117l-79 66z" />
    <glyph glyph-name="Otilde" unicode="&#xd5;" horiz-adv-x="850" 
d="M797 350c0 -50 -9.33301 -96.833 -28 -140.5s-44.5 -82 -77.5 -115s-72.333 -59 -118 -78s-95.5 -28.5 -149.5 -28.5s-103.667 9.5 -149 28.5s-84.5 44.667 -117.5 77s-58.667 70.333 -77 114s-27.5 90.5 -27.5 140.5v2c0 50 9.33301 96.833 28 140.5s44.5 82 77.5 115
s72.333 59 118 78s95.5 28.5 149.5 28.5s103.667 -9.5 149 -28.5s84.5 -44.667 117.5 -77s58.667 -70.333 77 -114s27.5 -90.5 27.5 -140.5v-2zM636 350c0 30 -5.16699 58.333 -15.5 85s-25 50 -44 70s-41.333 35.833 -67 47.5s-54.167 17.5 -85.5 17.5
c-30.667 0 -59 -5.66699 -85 -17s-48.167 -27 -66.5 -47s-32.666 -43.167 -42.999 -69.5s-15.5 -54.5 -15.5 -84.5v-2c0 -30 5.16699 -58.333 15.5 -85s25 -50 44 -70s41.5 -35.833 67.5 -47.5s54.333 -17.5 85 -17.5c31.333 0 59.833 5.66699 85.5 17s47.667 27 66 47
s32.666 43.167 42.999 69.5s15.5 54.5 15.5 84.5v2zM631 893c-11.333 -42 -25.999 -75.5 -43.999 -100.5s-44.667 -37.5 -80 -37.5c-15.333 0 -30.166 2 -44.499 6s-27.833 8.5 -40.5 13.5l-35 13.5c-10.667 4 -20.667 6 -30 6c-15.333 0 -26.833 -4.16699 -34.5 -12.5
s-15.167 -20.5 -22.5 -36.5l-81 25c11.333 42 26.166 75.5 44.499 100.5s44.833 37.5 79.5 37.5c15.333 0 30.166 -2 44.499 -6s27.833 -8.5 40.5 -13.5l35.5 -13.5c11 -4 20.833 -6 29.5 -6c15.333 0 26.833 4.16699 34.5 12.5s15.167 20.5 22.5 36.5z" />
    <glyph glyph-name="Odieresis" unicode="&#xd6;" horiz-adv-x="850" 
d="M797 350c0 -50 -9.33301 -96.833 -28 -140.5s-44.5 -82 -77.5 -115s-72.333 -59 -118 -78s-95.5 -28.5 -149.5 -28.5s-103.667 9.5 -149 28.5s-84.5 44.667 -117.5 77s-58.667 70.333 -77 114s-27.5 90.5 -27.5 140.5v2c0 50 9.33301 96.833 28 140.5s44.5 82 77.5 115
s72.333 59 118 78s95.5 28.5 149.5 28.5s103.667 -9.5 149 -28.5s84.5 -44.667 117.5 -77s58.667 -70.333 77 -114s27.5 -90.5 27.5 -140.5v-2zM636 350c0 30 -5.16699 58.333 -15.5 85s-25 50 -44 70s-41.333 35.833 -67 47.5s-54.167 17.5 -85.5 17.5
c-30.667 0 -59 -5.66699 -85 -17s-48.167 -27 -66.5 -47s-32.666 -43.167 -42.999 -69.5s-15.5 -54.5 -15.5 -84.5v-2c0 -30 5.16699 -58.333 15.5 -85s25 -50 44 -70s41.5 -35.833 67.5 -47.5s54.333 -17.5 85 -17.5c31.333 0 59.833 5.66699 85.5 17s47.667 27 66 47
s32.666 43.167 42.999 69.5s15.5 54.5 15.5 84.5v2zM459 755v135h146v-135h-146zM245 755v135h146v-135h-146z" />
    <glyph glyph-name="Oslash" unicode="&#xd8;" horiz-adv-x="850" 
d="M797 351c0 -50 -9.33301 -97 -28 -141s-44.5 -82.5 -77.5 -115.5s-72.333 -59 -118 -78s-95.5 -28.5 -149.5 -28.5c-36 0 -70.167 4.33301 -102.5 13s-62.5 21 -90.5 37l-39 -43h-147l98 114c-28.667 32 -50.834 68.333 -66.501 109s-23.5 84.334 -23.5 131.001
c0 50 9.33301 97 28 141s44.5 82.5 77.5 115.5s72.333 59 118 78s95.5 28.5 149.5 28.5c36 0 70.167 -4.33301 102.5 -13s62.5 -21 90.5 -37l39 43h147l-98 -114c28.667 -32 50.834 -68.333 66.501 -109s23.5 -84.334 23.5 -131.001zM523 549
c-14.667 7.33301 -30.168 13.167 -46.501 17.5s-33.833 6.5 -52.5 6.5c-31.333 0 -60.166 -6 -86.499 -18s-48.833 -28.167 -67.5 -48.5s-33.167 -43.833 -43.5 -70.5s-15.5 -55 -15.5 -85c0 -45.333 11.667 -86.333 35 -123zM638.999 349.001
c0 45.333 -11.666 86.332 -34.999 122.999l-277 -321c14.667 -7.33301 30.167 -13.166 46.5 -17.499s33.833 -6.5 52.5 -6.5c31.333 0 60.166 6 86.499 18s48.833 28.167 67.5 48.5s33.167 43.833 43.5 70.5s15.5 55 15.5 85z" />
    <glyph glyph-name="Ugrave" unicode="&#xd9;" horiz-adv-x="756" 
d="M683 305c0 -52.667 -7.16602 -98.833 -21.499 -138.5s-34.833 -72.667 -61.5 -99s-58.834 -46 -96.501 -59s-80.167 -19.5 -127.5 -19.5c-94 0 -168 26.167 -222 78.5s-81 129.833 -81 232.5v400h154v-396c0 -57.333 13.333 -100.5 40 -129.5s63.667 -43.5 111 -43.5
s84.333 14 111 42s40 70 40 126v401h154v-395zM331.001 750.001l-128 120l131 57l113 -177h-116z" />
    <glyph glyph-name="Uacute" unicode="&#xda;" horiz-adv-x="756" 
d="M683 305c0 -52.667 -7.16602 -98.833 -21.499 -138.5s-34.833 -72.667 -61.5 -99s-58.834 -46 -96.501 -59s-80.167 -19.5 -127.5 -19.5c-94 0 -168 26.167 -222 78.5s-81 129.833 -81 232.5v400h154v-396c0 -57.333 13.333 -100.5 40 -129.5s63.667 -43.5 111 -43.5
s84.333 14 111 42s40 70 40 126v401h154v-395zM309.001 750.001l113 177l131 -57l-128 -120h-116z" />
    <glyph glyph-name="Ucircumflex" unicode="&#xdb;" horiz-adv-x="756" 
d="M683 305c0 -52.667 -7.16602 -98.833 -21.499 -138.5s-34.833 -72.667 -61.5 -99s-58.834 -46 -96.501 -59s-80.167 -19.5 -127.5 -19.5c-94 0 -168 26.167 -222 78.5s-81 129.833 -81 232.5v400h154v-396c0 -57.333 13.333 -100.5 40 -129.5s63.667 -43.5 111 -43.5
s84.333 14 111 42s40 70 40 126v401h154v-395zM298.001 755.001h-115l123 157h144l123 -157h-117l-79 66z" />
    <glyph glyph-name="Udieresis" unicode="&#xdc;" horiz-adv-x="756" 
d="M683 305c0 -52.667 -7.16602 -98.833 -21.499 -138.5s-34.833 -72.667 -61.5 -99s-58.834 -46 -96.501 -59s-80.167 -19.5 -127.5 -19.5c-94 0 -168 26.167 -222 78.5s-81 129.833 -81 232.5v400h154v-396c0 -57.333 13.333 -100.5 40 -129.5s63.667 -43.5 111 -43.5
s84.333 14 111 42s40 70 40 126v401h154v-395zM412.001 755.001v135h146v-135h-146zM198.001 755.001v135h146v-135h-146z" />
    <glyph glyph-name="Yacute" unicode="&#xdd;" horiz-adv-x="716" 
d="M435 279v-279h-154v276l-269 424h180l167 -281l170 281h175zM299 750l113 177l131 -57l-128 -120h-116z" />
    <glyph glyph-name="Thorn" unicode="&#xde;" horiz-adv-x="673" 
d="M638 355c0 -40.667 -7.33301 -76.5 -22 -107.5s-34.834 -56.833 -60.501 -77.5s-55.667 -36.167 -90 -46.5s-71.166 -15.5 -110.499 -15.5h-117v-108h-154v700h154v-102h132c42 0 79.5 -5.83301 112.5 -17.5s61 -28.167 84 -49.5s40.667 -47 53 -77s18.5 -63 18.5 -99z
M482 352c0 35.333 -11.167 62 -33.5 80s-52.833 27 -91.5 27h-119v-214h122c38.667 0 68.667 10 90 30s32 45.667 32 77z" />
    <glyph glyph-name="germandbls" unicode="&#xdf;" horiz-adv-x="620" 
d="M537 542c0 -22 -2.33203 -41.168 -6.99902 -57.501s-11.167 -31 -19.5 -44s-18 -24.5 -29 -34.5s-22.833 -19.333 -35.5 -28c17.333 -7.33301 33.833 -16.166 49.5 -26.499s29.5 -22.666 41.5 -36.999s21.667 -31 29 -50s11 -40.5 11 -64.5c0 -33.333 -6.5 -63 -19.5 -89
s-31.667 -47.667 -56 -65s-53.666 -30.166 -87.999 -38.499s-72.5 -11.5 -114.5 -9.5v114c41.333 2 73 10.667 95 26s33 37.666 33 66.999c0 28 -12.167 50 -36.5 66s-54.833 26.667 -91.5 32v100c24.667 15.333 45.5 33 62.5 53s25.5 44 25.5 72
c0 25.333 -7.16699 45.166 -21.5 59.499s-33.833 21.5 -58.5 21.5c-26 0 -47.167 -9 -63.5 -27s-24.5 -42.333 -24.5 -73v-509h-151v503c0 37.333 5.83301 70.5 17.5 99.5s28.167 53.5 49.5 73.5s47.166 35.167 77.499 45.5s64.166 15.5 101.499 15.5
c36 0 67.833 -5 95.5 -15s51 -23.667 70 -41s33.333 -38 43 -62s14.5 -49.667 14.5 -77z" />
    <glyph glyph-name="agrave" unicode="&#xe0;" horiz-adv-x="592" 
d="M382 0l0.000976562 58.002c-18.667 -20.667 -41 -37.167 -67 -49.5s-57.667 -18.5 -95 -18.5c-25.333 0 -49.166 3.5 -71.499 10.5s-41.833 17.5 -58.5 31.5s-29.834 31.167 -39.501 51.5s-14.5 43.833 -14.5 70.5v2c0 29.333 5.33301 54.666 16 75.999s25.5 39 44.5 53
s41.667 24.5 68 31.5s55.5 10.5 87.5 10.5c27.333 0 51.166 -2 71.499 -6s40.166 -9.33301 59.499 -16v9c0 32 -9.66699 56.333 -29 73s-48 25 -86 25c-29.333 0 -55.166 -2.5 -77.499 -7.5s-45.833 -12.167 -70.5 -21.5l-38 116c30 13.333 60.667 23.833 92 31.5
s70 11.5 116 11.5c83.333 0 144 -20.333 182 -61s57 -97.334 57 -170.001v-311h-147zM385.001 216.002c-13.333 6 -28.166 10.833 -44.499 14.5s-33.833 5.5 -52.5 5.5c-32.667 0 -58.334 -6.33301 -77.001 -19s-28 -31 -28 -55v-2c0 -20.667 7.66699 -36.667 23 -48
s35.333 -17 60 -17c36 0 64.833 8.66699 86.5 26s32.5 40 32.5 68v27zM254.001 595.002l-128 120l131 57l113 -177h-116z" />
    <glyph glyph-name="aacute" unicode="&#xe1;" horiz-adv-x="592" 
d="M382 0l0.000976562 58.002c-18.667 -20.667 -41 -37.167 -67 -49.5s-57.667 -18.5 -95 -18.5c-25.333 0 -49.166 3.5 -71.499 10.5s-41.833 17.5 -58.5 31.5s-29.834 31.167 -39.501 51.5s-14.5 43.833 -14.5 70.5v2c0 29.333 5.33301 54.666 16 75.999s25.5 39 44.5 53
s41.667 24.5 68 31.5s55.5 10.5 87.5 10.5c27.333 0 51.166 -2 71.499 -6s40.166 -9.33301 59.499 -16v9c0 32 -9.66699 56.333 -29 73s-48 25 -86 25c-29.333 0 -55.166 -2.5 -77.499 -7.5s-45.833 -12.167 -70.5 -21.5l-38 116c30 13.333 60.667 23.833 92 31.5
s70 11.5 116 11.5c83.333 0 144 -20.333 182 -61s57 -97.334 57 -170.001v-311h-147zM385.001 216.002c-13.333 6 -28.166 10.833 -44.499 14.5s-33.833 5.5 -52.5 5.5c-32.667 0 -58.334 -6.33301 -77.001 -19s-28 -31 -28 -55v-2c0 -20.667 7.66699 -36.667 23 -48
s35.333 -17 60 -17c36 0 64.833 8.66699 86.5 26s32.5 40 32.5 68v27zM227.001 595.002l113 177l131 -57l-128 -120h-116z" />
    <glyph glyph-name="acircumflex" unicode="&#xe2;" horiz-adv-x="592" 
d="M382 0l0.000976562 58.002c-18.667 -20.667 -41 -37.167 -67 -49.5s-57.667 -18.5 -95 -18.5c-25.333 0 -49.166 3.5 -71.499 10.5s-41.833 17.5 -58.5 31.5s-29.834 31.167 -39.501 51.5s-14.5 43.833 -14.5 70.5v2c0 29.333 5.33301 54.666 16 75.999s25.5 39 44.5 53
s41.667 24.5 68 31.5s55.5 10.5 87.5 10.5c27.333 0 51.166 -2 71.499 -6s40.166 -9.33301 59.499 -16v9c0 32 -9.66699 56.333 -29 73s-48 25 -86 25c-29.333 0 -55.166 -2.5 -77.499 -7.5s-45.833 -12.167 -70.5 -21.5l-38 116c30 13.333 60.667 23.833 92 31.5
s70 11.5 116 11.5c83.333 0 144 -20.333 182 -61s57 -97.334 57 -170.001v-311h-147zM385.001 216.002c-13.333 6 -28.166 10.833 -44.499 14.5s-33.833 5.5 -52.5 5.5c-32.667 0 -58.334 -6.33301 -77.001 -19s-28 -31 -28 -55v-2c0 -20.667 7.66699 -36.667 23 -48
s35.333 -17 60 -17c36 0 64.833 8.66699 86.5 26s32.5 40 32.5 68v27zM214.001 595.002h-115l123 157h144l123 -157h-117l-79 66z" />
    <glyph glyph-name="atilde" unicode="&#xe3;" horiz-adv-x="592" 
d="M382 0l0.000976562 58.002c-18.667 -20.667 -41 -37.167 -67 -49.5s-57.667 -18.5 -95 -18.5c-25.333 0 -49.166 3.5 -71.499 10.5s-41.833 17.5 -58.5 31.5s-29.834 31.167 -39.501 51.5s-14.5 43.833 -14.5 70.5v2c0 29.333 5.33301 54.666 16 75.999s25.5 39 44.5 53
s41.667 24.5 68 31.5s55.5 10.5 87.5 10.5c27.333 0 51.166 -2 71.499 -6s40.166 -9.33301 59.499 -16v9c0 32 -9.66699 56.333 -29 73s-48 25 -86 25c-29.333 0 -55.166 -2.5 -77.499 -7.5s-45.833 -12.167 -70.5 -21.5l-38 116c30 13.333 60.667 23.833 92 31.5
s70 11.5 116 11.5c83.333 0 144 -20.333 182 -61s57 -97.334 57 -170.001v-311h-147zM385.001 216.002c-13.333 6 -28.166 10.833 -44.499 14.5s-33.833 5.5 -52.5 5.5c-32.667 0 -58.334 -6.33301 -77.001 -19s-28 -31 -28 -55v-2c0 -20.667 7.66699 -36.667 23 -48
s35.333 -17 60 -17c36 0 64.833 8.66699 86.5 26s32.5 40 32.5 68v27zM502.001 733.002c-11.333 -42 -25.999 -75.5 -43.999 -100.5s-44.667 -37.5 -80 -37.5c-15.333 0 -30.166 2 -44.499 6s-27.833 8.5 -40.5 13.5l-35 13.5c-10.667 4 -20.667 6 -30 6
c-15.333 0 -26.833 -4.16699 -34.5 -12.5s-15.167 -20.5 -22.5 -36.5l-81 25c11.333 42 26.166 75.5 44.499 100.5s44.833 37.5 79.5 37.5c15.333 0 30.166 -2 44.499 -6s27.833 -8.5 40.5 -13.5l35.5 -13.5c11 -4 20.833 -6 29.5 -6c15.333 0 26.833 4.16699 34.5 12.5
s15.167 20.5 22.5 36.5z" />
    <glyph glyph-name="adieresis" unicode="&#xe4;" horiz-adv-x="592" 
d="M382 0l0.000976562 58.002c-18.667 -20.667 -41 -37.167 -67 -49.5s-57.667 -18.5 -95 -18.5c-25.333 0 -49.166 3.5 -71.499 10.5s-41.833 17.5 -58.5 31.5s-29.834 31.167 -39.501 51.5s-14.5 43.833 -14.5 70.5v2c0 29.333 5.33301 54.666 16 75.999s25.5 39 44.5 53
s41.667 24.5 68 31.5s55.5 10.5 87.5 10.5c27.333 0 51.166 -2 71.499 -6s40.166 -9.33301 59.499 -16v9c0 32 -9.66699 56.333 -29 73s-48 25 -86 25c-29.333 0 -55.166 -2.5 -77.499 -7.5s-45.833 -12.167 -70.5 -21.5l-38 116c30 13.333 60.667 23.833 92 31.5
s70 11.5 116 11.5c83.333 0 144 -20.333 182 -61s57 -97.334 57 -170.001v-311h-147zM385.001 216.002c-13.333 6 -28.166 10.833 -44.499 14.5s-33.833 5.5 -52.5 5.5c-32.667 0 -58.334 -6.33301 -77.001 -19s-28 -31 -28 -55v-2c0 -20.667 7.66699 -36.667 23 -48
s35.333 -17 60 -17c36 0 64.833 8.66699 86.5 26s32.5 40 32.5 68v27zM328.001 595.002v135h146v-135h-146zM114.001 595.002v135h146v-135h-146z" />
    <glyph glyph-name="aring" unicode="&#xe5;" horiz-adv-x="592" 
d="M382 0l0.000976562 58.002c-18.667 -20.667 -41 -37.167 -67 -49.5s-57.667 -18.5 -95 -18.5c-25.333 0 -49.166 3.5 -71.499 10.5s-41.833 17.5 -58.5 31.5s-29.834 31.167 -39.501 51.5s-14.5 43.833 -14.5 70.5v2c0 29.333 5.33301 54.666 16 75.999s25.5 39 44.5 53
s41.667 24.5 68 31.5s55.5 10.5 87.5 10.5c27.333 0 51.166 -2 71.499 -6s40.166 -9.33301 59.499 -16v9c0 32 -9.66699 56.333 -29 73s-48 25 -86 25c-29.333 0 -55.166 -2.5 -77.499 -7.5s-45.833 -12.167 -70.5 -21.5l-38 116c30 13.333 60.667 23.833 92 31.5
s70 11.5 116 11.5c83.333 0 144 -20.333 182 -61s57 -97.334 57 -170.001v-311h-147zM385.001 216.002c-13.333 6 -28.166 10.833 -44.499 14.5s-33.833 5.5 -52.5 5.5c-32.667 0 -58.334 -6.33301 -77.001 -19s-28 -31 -28 -55v-2c0 -20.667 7.66699 -36.667 23 -48
s35.333 -17 60 -17c36 0 64.833 8.66699 86.5 26s32.5 40 32.5 68v27zM415.001 710.002c0 -16 -3.33301 -31.167 -10 -45.5s-15.5 -26.666 -26.5 -36.999s-23.833 -18.666 -38.5 -24.999s-30 -9.5 -46 -9.5s-31.333 3.16699 -46 9.5s-27.5 14.666 -38.5 24.999
s-19.833 22.666 -26.5 36.999s-10 29.5 -10 45.5s3.33301 31.167 10 45.5s15.5 26.666 26.5 36.999s23.833 18.666 38.5 24.999s30 9.5 46 9.5s31.333 -3.16699 46 -9.5s27.5 -14.666 38.5 -24.999s19.833 -22.666 26.5 -36.999s10 -29.5 10 -45.5zM356.001 710.002
c0 17.333 -6 32 -18 44s-26.667 18 -44 18s-32 -6 -44 -18s-18 -26.667 -18 -44s6 -32 18 -44s26.667 -18 44 -18s32 6 44 18s18 26.667 18 44z" />
    <glyph glyph-name="ae" unicode="&#xe6;" horiz-adv-x="951" 
d="M456 69c-30.667 -22.667 -63.998 -41.498 -99.998 -56.498s-75.333 -22.5 -118 -22.5c-30 0 -57.333 3.66699 -82 11s-45.834 18.166 -63.501 32.499s-31.5 31.833 -41.5 52.5s-15 44.334 -15 71.001c0 29.333 5.33301 54.666 16 75.999s25.5 39 44.5 53
s41.667 24.333 68 31s55.5 10 87.5 10c27.333 0 51.166 -2 71.499 -6s40.166 -9.33301 59.499 -16v9c0 32 -9.66699 56.333 -29 73s-48 25 -86 25c-29.333 0 -55.166 -2.5 -77.499 -7.5s-45.833 -12.167 -70.5 -21.5l-38 116c30 13.333 60.667 23.833 92 31.5
s70 11.5 116 11.5c44 0 80.833 -5.83301 110.5 -17.5s53.5 -28.5 71.5 -50.5c22 22.667 47.833 40.334 77.5 53.001s62.834 19 99.501 19c44 0 82 -8 114 -24s58.667 -37.5 80 -64.5s37.166 -58.167 47.499 -93.5s15.5 -72 15.5 -110
c0 -7.33301 -0.166992 -13.833 -0.5 -19.5s-0.833008 -12.167 -1.5 -19.5h-373c8 -34.667 23.333 -60.834 46 -78.501s51 -26.5 85 -26.5c25.333 0 48 4.33301 68 13s40.667 22.667 62 42l87 -77c-25.333 -31.333 -56 -55.833 -92 -73.5s-78.333 -26.5 -127 -26.5
c-41.333 0 -79.333 7.16699 -114 21.5s-64.667 34.166 -90 59.499zM758.002 310.002c-4.66699 34 -16.667 61.501 -36 82.501s-45 31.5 -77 31.5s-57.833 -10.333 -77.5 -31s-32.5 -48.334 -38.5 -83.001h229zM384.002 217.003c-13.333 5.33301 -28.167 9.83301 -44.5 13.5
s-33.5 5.5 -51.5 5.5c-32.667 0 -58.334 -6 -77.001 -18s-28 -30.333 -28 -55c0 -21.333 7.66699 -37.666 23 -48.999s35.333 -17 60 -17c22.667 0 45.5 4.16699 68.5 12.5s45.833 21.166 68.5 38.499c-4.66699 10.667 -8.66699 21.667 -12 33s-5.66602 23.333 -6.99902 36z
" />
    <glyph glyph-name="ccedilla" unicode="&#xe7;" horiz-adv-x="571" 
d="M236 0c-28.667 8.66699 -55.0039 21.5059 -79.0039 38.5059s-44.5 37.167 -61.5 60.5s-30.167 49.166 -39.5 77.499s-14 58.166 -14 89.499c0 38.667 7 75 21 109s33.333 63.667 58 89s54.334 45.333 89.001 60s72.334 22 113.001 22c50.667 0 92.667 -8 126 -24
s62.666 -38 87.999 -66l-93 -100c-17.333 18 -35.166 32.333 -53.499 43s-41.166 16 -68.499 16c-18.667 0 -36 -3.83301 -52 -11.5s-29.833 -18.334 -41.5 -32.001s-20.667 -29.334 -27 -47.001s-9.5 -36.5 -9.5 -56.5c0 -20.667 3.16699 -40 9.5 -58
s15.5 -33.833 27.5 -47.5s26.333 -24.334 43 -32.001s35.334 -11.5 56.001 -11.5c25.333 0 47.5 5.16699 66.5 15.5s37.833 24.166 56.5 41.499l89 -90c-24 -26 -50.833 -48 -80.5 -66s-67.5 -28.333 -113.5 -31l-65 -162l-127 53z" />
    <glyph glyph-name="egrave" unicode="&#xe8;" horiz-adv-x="613" 
d="M568 253c0 -7.33301 -0.169922 -13.667 -0.50293 -19s-0.833008 -11.666 -1.5 -18.999h-373c7.33301 -34.667 22.5 -60.834 45.5 -78.501s51.5 -26.5 85.5 -26.5c25.333 0 48 4.33301 68 13s40.667 22.667 62 42l87 -77c-25.333 -31.333 -56 -55.833 -92 -73.5
s-78.333 -26.5 -127 -26.5c-40 0 -77.167 6.66699 -111.5 20s-64 32.333 -89 57s-44.5 54 -58.5 88s-21 71.333 -21 112v2c0 38 6.5 74 19.5 108s31.167 63.667 54.5 89s51.333 45.333 84 60s68.334 22 107.001 22c44.667 0 83.334 -8 116.001 -24
s59.834 -37.5 81.501 -64.5s37.667 -58 48 -93s15.5 -71.5 15.5 -109.5v-2zM419.997 309.999c-4.66699 34 -16.667 61.501 -36 82.501s-45 31.5 -77 31.5s-57.833 -10.333 -77.5 -31s-32.5 -48.334 -38.5 -83.001h229zM249.997 595l-128 120l131 57l113 -177h-116z" />
    <glyph glyph-name="eacute" unicode="&#xe9;" horiz-adv-x="613" 
d="M568 253c0 -7.33301 -0.169922 -13.667 -0.50293 -19s-0.833008 -11.666 -1.5 -18.999h-373c7.33301 -34.667 22.5 -60.834 45.5 -78.501s51.5 -26.5 85.5 -26.5c25.333 0 48 4.33301 68 13s40.667 22.667 62 42l87 -77c-25.333 -31.333 -56 -55.833 -92 -73.5
s-78.333 -26.5 -127 -26.5c-40 0 -77.167 6.66699 -111.5 20s-64 32.333 -89 57s-44.5 54 -58.5 88s-21 71.333 -21 112v2c0 38 6.5 74 19.5 108s31.167 63.667 54.5 89s51.333 45.333 84 60s68.334 22 107.001 22c44.667 0 83.334 -8 116.001 -24
s59.834 -37.5 81.501 -64.5s37.667 -58 48 -93s15.5 -71.5 15.5 -109.5v-2zM419.997 309.999c-4.66699 34 -16.667 61.501 -36 82.501s-45 31.5 -77 31.5s-57.833 -10.333 -77.5 -31s-32.5 -48.334 -38.5 -83.001h229zM245.997 595l113 177l131 -57l-128 -120h-116z" />
    <glyph glyph-name="ecircumflex" unicode="&#xea;" horiz-adv-x="613" 
d="M568 253c0 -7.33301 -0.169922 -13.667 -0.50293 -19s-0.833008 -11.666 -1.5 -18.999h-373c7.33301 -34.667 22.5 -60.834 45.5 -78.501s51.5 -26.5 85.5 -26.5c25.333 0 48 4.33301 68 13s40.667 22.667 62 42l87 -77c-25.333 -31.333 -56 -55.833 -92 -73.5
s-78.333 -26.5 -127 -26.5c-40 0 -77.167 6.66699 -111.5 20s-64 32.333 -89 57s-44.5 54 -58.5 88s-21 71.333 -21 112v2c0 38 6.5 74 19.5 108s31.167 63.667 54.5 89s51.333 45.333 84 60s68.334 22 107.001 22c44.667 0 83.334 -8 116.001 -24
s59.834 -37.5 81.501 -64.5s37.667 -58 48 -93s15.5 -71.5 15.5 -109.5v-2zM419.997 309.999c-4.66699 34 -16.667 61.501 -36 82.501s-45 31.5 -77 31.5s-57.833 -10.333 -77.5 -31s-32.5 -48.334 -38.5 -83.001h229zM225.997 595h-115l123 157h144l123 -157h-117l-79 66z
" />
    <glyph glyph-name="edieresis" unicode="&#xeb;" horiz-adv-x="613" 
d="M568 253c0 -7.33301 -0.169922 -13.667 -0.50293 -19s-0.833008 -11.666 -1.5 -18.999h-373c7.33301 -34.667 22.5 -60.834 45.5 -78.501s51.5 -26.5 85.5 -26.5c25.333 0 48 4.33301 68 13s40.667 22.667 62 42l87 -77c-25.333 -31.333 -56 -55.833 -92 -73.5
s-78.333 -26.5 -127 -26.5c-40 0 -77.167 6.66699 -111.5 20s-64 32.333 -89 57s-44.5 54 -58.5 88s-21 71.333 -21 112v2c0 38 6.5 74 19.5 108s31.167 63.667 54.5 89s51.333 45.333 84 60s68.334 22 107.001 22c44.667 0 83.334 -8 116.001 -24
s59.834 -37.5 81.501 -64.5s37.667 -58 48 -93s15.5 -71.5 15.5 -109.5v-2zM419.997 309.999c-4.66699 34 -16.667 61.501 -36 82.501s-45 31.5 -77 31.5s-57.833 -10.333 -77.5 -31s-32.5 -48.334 -38.5 -83.001h229zM339.997 595v135h146v-135h-146zM125.997 595v135h146
v-135h-146z" />
    <glyph glyph-name="igrave" unicode="&#xec;" horiz-adv-x="302" 
d="M75 0v536h152v-536h-152zM101 595l-128 120l131 57l113 -177h-116z" />
    <glyph glyph-name="iacute" unicode="&#xed;" horiz-adv-x="302" 
d="M75 0v536h152v-536h-152zM85 595l113 177l131 -57l-128 -120h-116z" />
    <glyph glyph-name="icircumflex" unicode="&#xee;" horiz-adv-x="302" 
d="M75 0v536h152v-536h-152zM71 595h-115l123 157h144l123 -157h-117l-79 66z" />
    <glyph glyph-name="idieresis" unicode="&#xef;" horiz-adv-x="302" 
d="M75 0v536h152v-536h-152zM185 595v135h146v-135h-146zM-29 595v135h146v-135h-146z" />
    <glyph glyph-name="eth" unicode="&#xf0;" horiz-adv-x="648" 
d="M193 523l-55.998 74.9971l115 46l-64 86h171l23 -33l100 41l55 -75l-102 -41l81 -115c31.333 -44.667 53.833 -85.667 67.5 -123s20.5 -77.666 20.5 -120.999c0 -37.333 -6.33301 -72.666 -19 -105.999s-31.334 -62.5 -56.001 -87.5s-54.5 -44.833 -89.5 -59.5
s-75.167 -22 -120.5 -22c-40 0 -77 6.83301 -111 20.5s-63.167 32.334 -87.5 56.001s-43.5 51.5 -57.5 83.5s-21 66.333 -21 103c0 34.667 5.66699 66.5 17 95.5s27.166 53.833 47.499 74.5s44.5 36.667 72.5 48s58.667 17 92 17c23.333 0 44.333 -2.5 63 -7.5
s38.667 -13.167 60 -24.5l-87 116zM456.002 247.997c0 18 -3.16699 34.833 -9.5 50.5s-15.166 29.5 -26.499 41.5s-25.333 21.333 -42 28s-35 10 -55 10c-40.667 0 -73 -12.333 -97 -37s-36 -55.667 -36 -93c0 -18 3.16699 -35 9.5 -51s15.5 -30 27.5 -42
s26.167 -21.5 42.5 -28.5s34.5 -10.5 54.5 -10.5c20.667 0 39.167 3.33301 55.5 10s30.166 16 41.499 28s20 26 26 42s9 33.333 9 52z" />
    <glyph glyph-name="ntilde" unicode="&#xf1;" horiz-adv-x="623" 
d="M407 0l0.000976562 299c0 36 -8 63.167 -24 81.5s-38.667 27.5 -68 27.5s-52.5 -9.16699 -69.5 -27.5s-25.5 -45.5 -25.5 -81.5v-299h-152v536h152v-76c17.333 22.667 38.166 42.667 62.499 60s55.833 26 94.5 26c58 0 102.833 -17.667 134.5 -53s47.5 -84 47.5 -146
v-347h-152zM522.001 733c-11.333 -42 -25.999 -75.5 -43.999 -100.5s-44.667 -37.5 -80 -37.5c-15.333 0 -30.166 2 -44.499 6s-27.833 8.5 -40.5 13.5l-35 13.5c-10.667 4 -20.667 6 -30 6c-15.333 0 -26.833 -4.16699 -34.5 -12.5s-15.167 -20.5 -22.5 -36.5l-81 25
c11.333 42 26.166 75.5 44.499 100.5s44.833 37.5 79.5 37.5c15.333 0 30.166 -2 44.499 -6s27.833 -8.5 40.5 -13.5l35.5 -13.5c11 -4 20.833 -6 29.5 -6c15.333 0 26.833 4.16699 34.5 12.5s15.167 20.5 22.5 36.5z" />
    <glyph glyph-name="ograve" unicode="&#xf2;" horiz-adv-x="664" 
d="M622 267c0 -38.667 -7.33301 -74.834 -22 -108.501s-35 -63.167 -61 -88.5s-56.667 -45.333 -92 -60s-74 -22 -116 -22c-41.333 0 -79.666 7.16699 -114.999 21.5s-65.833 34 -91.5 59s-45.834 54.333 -60.501 88s-22 69.834 -22 108.501v2
c0 38.667 7.33301 74.834 22 108.501s35 63.167 61 88.5s56.667 45.333 92 60s74 22 116 22c41.333 0 79.666 -7.16699 114.999 -21.5s65.833 -34 91.5 -59s45.834 -54.333 60.501 -88s22 -69.834 22 -108.501v-2zM472 267c0 20 -3.33301 38.833 -10 56.5
s-16.334 33.334 -29.001 47.001s-27.5 24.5 -44.5 32.5s-36.167 12 -57.5 12c-22 0 -41.5 -3.83301 -58.5 -11.5s-31.5 -18.167 -43.5 -31.5s-21.167 -28.833 -27.5 -46.5s-9.5 -36.5 -9.5 -56.5v-2c0 -20 3.33301 -38.833 10 -56.5s16.334 -33.334 29.001 -47.001
s27.667 -24.5 45 -32.5s36.333 -12 57 -12c22 0 41.5 3.83301 58.5 11.5s31.5 18.167 43.5 31.5s21.167 28.833 27.5 46.5s9.5 36.5 9.5 56.5v2zM274 595l-128 120l131 57l113 -177h-116z" />
    <glyph glyph-name="oacute" unicode="&#xf3;" horiz-adv-x="664" 
d="M622 267c0 -38.667 -7.33301 -74.834 -22 -108.501s-35 -63.167 -61 -88.5s-56.667 -45.333 -92 -60s-74 -22 -116 -22c-41.333 0 -79.666 7.16699 -114.999 21.5s-65.833 34 -91.5 59s-45.834 54.333 -60.501 88s-22 69.834 -22 108.501v2
c0 38.667 7.33301 74.834 22 108.501s35 63.167 61 88.5s56.667 45.333 92 60s74 22 116 22c41.333 0 79.666 -7.16699 114.999 -21.5s65.833 -34 91.5 -59s45.834 -54.333 60.501 -88s22 -69.834 22 -108.501v-2zM472 267c0 20 -3.33301 38.833 -10 56.5
s-16.334 33.334 -29.001 47.001s-27.5 24.5 -44.5 32.5s-36.167 12 -57.5 12c-22 0 -41.5 -3.83301 -58.5 -11.5s-31.5 -18.167 -43.5 -31.5s-21.167 -28.833 -27.5 -46.5s-9.5 -36.5 -9.5 -56.5v-2c0 -20 3.33301 -38.833 10 -56.5s16.334 -33.334 29.001 -47.001
s27.667 -24.5 45 -32.5s36.333 -12 57 -12c22 0 41.5 3.83301 58.5 11.5s31.5 18.167 43.5 31.5s21.167 28.833 27.5 46.5s9.5 36.5 9.5 56.5v2zM274 595l113 177l131 -57l-128 -120h-116z" />
    <glyph glyph-name="ocircumflex" unicode="&#xf4;" horiz-adv-x="664" 
d="M622 267c0 -38.667 -7.33301 -74.834 -22 -108.501s-35 -63.167 -61 -88.5s-56.667 -45.333 -92 -60s-74 -22 -116 -22c-41.333 0 -79.666 7.16699 -114.999 21.5s-65.833 34 -91.5 59s-45.834 54.333 -60.501 88s-22 69.834 -22 108.501v2
c0 38.667 7.33301 74.834 22 108.501s35 63.167 61 88.5s56.667 45.333 92 60s74 22 116 22c41.333 0 79.666 -7.16699 114.999 -21.5s65.833 -34 91.5 -59s45.834 -54.333 60.501 -88s22 -69.834 22 -108.501v-2zM472 267c0 20 -3.33301 38.833 -10 56.5
s-16.334 33.334 -29.001 47.001s-27.5 24.5 -44.5 32.5s-36.167 12 -57.5 12c-22 0 -41.5 -3.83301 -58.5 -11.5s-31.5 -18.167 -43.5 -31.5s-21.167 -28.833 -27.5 -46.5s-9.5 -36.5 -9.5 -56.5v-2c0 -20 3.33301 -38.833 10 -56.5s16.334 -33.334 29.001 -47.001
s27.667 -24.5 45 -32.5s36.333 -12 57 -12c22 0 41.5 3.83301 58.5 11.5s31.5 18.167 43.5 31.5s21.167 28.833 27.5 46.5s9.5 36.5 9.5 56.5v2zM252 595h-115l123 157h144l123 -157h-117l-79 66z" />
    <glyph glyph-name="otilde" unicode="&#xf5;" horiz-adv-x="664" 
d="M622 267c0 -38.667 -7.33301 -74.834 -22 -108.501s-35 -63.167 -61 -88.5s-56.667 -45.333 -92 -60s-74 -22 -116 -22c-41.333 0 -79.666 7.16699 -114.999 21.5s-65.833 34 -91.5 59s-45.834 54.333 -60.501 88s-22 69.834 -22 108.501v2
c0 38.667 7.33301 74.834 22 108.501s35 63.167 61 88.5s56.667 45.333 92 60s74 22 116 22c41.333 0 79.666 -7.16699 114.999 -21.5s65.833 -34 91.5 -59s45.834 -54.333 60.501 -88s22 -69.834 22 -108.501v-2zM472 267c0 20 -3.33301 38.833 -10 56.5
s-16.334 33.334 -29.001 47.001s-27.5 24.5 -44.5 32.5s-36.167 12 -57.5 12c-22 0 -41.5 -3.83301 -58.5 -11.5s-31.5 -18.167 -43.5 -31.5s-21.167 -28.833 -27.5 -46.5s-9.5 -36.5 -9.5 -56.5v-2c0 -20 3.33301 -38.833 10 -56.5s16.334 -33.334 29.001 -47.001
s27.667 -24.5 45 -32.5s36.333 -12 57 -12c22 0 41.5 3.83301 58.5 11.5s31.5 18.167 43.5 31.5s21.167 28.833 27.5 46.5s9.5 36.5 9.5 56.5v2zM538 733c-11.333 -42 -25.999 -75.5 -43.999 -100.5s-44.667 -37.5 -80 -37.5c-15.333 0 -30.166 2 -44.499 6
s-27.833 8.5 -40.5 13.5l-35 13.5c-10.667 4 -20.667 6 -30 6c-15.333 0 -26.833 -4.16699 -34.5 -12.5s-15.167 -20.5 -22.5 -36.5l-81 25c11.333 42 26.166 75.5 44.499 100.5s44.833 37.5 79.5 37.5c15.333 0 30.166 -2 44.499 -6s27.833 -8.5 40.5 -13.5l35.5 -13.5
c11 -4 20.833 -6 29.5 -6c15.333 0 26.833 4.16699 34.5 12.5s15.167 20.5 22.5 36.5z" />
    <glyph glyph-name="odieresis" unicode="&#xf6;" horiz-adv-x="664" 
d="M622 267c0 -38.667 -7.33301 -74.834 -22 -108.501s-35 -63.167 -61 -88.5s-56.667 -45.333 -92 -60s-74 -22 -116 -22c-41.333 0 -79.666 7.16699 -114.999 21.5s-65.833 34 -91.5 59s-45.834 54.333 -60.501 88s-22 69.834 -22 108.501v2
c0 38.667 7.33301 74.834 22 108.501s35 63.167 61 88.5s56.667 45.333 92 60s74 22 116 22c41.333 0 79.666 -7.16699 114.999 -21.5s65.833 -34 91.5 -59s45.834 -54.333 60.501 -88s22 -69.834 22 -108.501v-2zM472 267c0 20 -3.33301 38.833 -10 56.5
s-16.334 33.334 -29.001 47.001s-27.5 24.5 -44.5 32.5s-36.167 12 -57.5 12c-22 0 -41.5 -3.83301 -58.5 -11.5s-31.5 -18.167 -43.5 -31.5s-21.167 -28.833 -27.5 -46.5s-9.5 -36.5 -9.5 -56.5v-2c0 -20 3.33301 -38.833 10 -56.5s16.334 -33.334 29.001 -47.001
s27.667 -24.5 45 -32.5s36.333 -12 57 -12c22 0 41.5 3.83301 58.5 11.5s31.5 18.167 43.5 31.5s21.167 28.833 27.5 46.5s9.5 36.5 9.5 56.5v2zM366 595v135h146v-135h-146zM152 595v135h146v-135h-146z" />
    <glyph glyph-name="oslash" unicode="&#xf8;" horiz-adv-x="664" 
d="M622 268c0 -38.667 -7.33203 -75 -21.999 -109s-35 -63.667 -61 -89s-56.667 -45.333 -92 -60s-74 -22 -116 -22c-26.667 0 -52 3 -76 9s-46.667 14.667 -68 26l-27 -28h-133l80 92c-20.667 24 -36.667 51.167 -48 81.5s-17 62.833 -17 97.5c0 38.667 7.33301 75 22 109
s35 63.667 61 89s56.667 45.333 92 60s74 22 116 22c26.667 0 52 -3 76 -9s46.333 -14.667 67 -26l28 30h133l-81 -93c21.333 -24.667 37.666 -52.167 48.999 -82.5s17 -62.833 17 -97.5zM388.001 407c-16.667 8 -35.666 12.001 -56.999 12.001c-22 0 -41.667 -4 -59 -12
s-32.333 -18.833 -45 -32.5s-22.334 -29.667 -29.001 -48s-10 -37.833 -10 -58.5c0 -24.667 5.33301 -48.334 16 -71.001zM476.002 266.001c0 24.667 -5.33398 48.333 -16.001 71l-183 -211c18 -7.33301 36.667 -11 56 -11c22 0 41.667 4 59 12s32.333 18.833 45 32.5
s22.334 29.667 29.001 48s10 37.833 10 58.5z" />
    <glyph glyph-name="ugrave" unicode="&#xf9;" horiz-adv-x="623" 
d="M403 0l-0.000976562 76c-17.333 -22.667 -38.166 -42.667 -62.499 -60s-55.833 -26 -94.5 -26c-58 0 -102.833 17.667 -134.5 53s-47.5 84 -47.5 146v347h152v-299c0 -36 8 -63.167 24 -81.5s38.667 -27.5 68 -27.5s52.5 9.16699 69.5 27.5s25.5 45.5 25.5 81.5v299h152
v-536h-152zM268.999 595l-128 120l131 57l113 -177h-116z" />
    <glyph glyph-name="uacute" unicode="&#xfa;" horiz-adv-x="623" 
d="M403 0l-0.000976562 76c-17.333 -22.667 -38.166 -42.667 -62.499 -60s-55.833 -26 -94.5 -26c-58 0 -102.833 17.667 -134.5 53s-47.5 84 -47.5 146v347h152v-299c0 -36 8 -63.167 24 -81.5s38.667 -27.5 68 -27.5s52.5 9.16699 69.5 27.5s25.5 45.5 25.5 81.5v299h152
v-536h-152zM236.999 595l113 177l131 -57l-128 -120h-116z" />
    <glyph glyph-name="ucircumflex" unicode="&#xfb;" horiz-adv-x="623" 
d="M403 0l-0.000976562 76c-17.333 -22.667 -38.166 -42.667 -62.499 -60s-55.833 -26 -94.5 -26c-58 0 -102.833 17.667 -134.5 53s-47.5 84 -47.5 146v347h152v-299c0 -36 8 -63.167 24 -81.5s38.667 -27.5 68 -27.5s52.5 9.16699 69.5 27.5s25.5 45.5 25.5 81.5v299h152
v-536h-152zM230.999 595h-115l123 157h144l123 -157h-117l-79 66z" />
    <glyph glyph-name="udieresis" unicode="&#xfc;" horiz-adv-x="623" 
d="M403 0l-0.000976562 76c-17.333 -22.667 -38.166 -42.667 -62.499 -60s-55.833 -26 -94.5 -26c-58 0 -102.833 17.667 -134.5 53s-47.5 84 -47.5 146v347h152v-299c0 -36 8 -63.167 24 -81.5s38.667 -27.5 68 -27.5s52.5 9.16699 69.5 27.5s25.5 45.5 25.5 81.5v299h152
v-536h-152zM344.999 595v135h146v-135h-146zM130.999 595v135h146v-135h-146z" />
    <glyph glyph-name="yacute" unicode="&#xfd;" horiz-adv-x="600" 
d="M372 -13c-10 -27.333 -20.6689 -50.5 -32.002 -69.5s-23.833 -34.5 -37.5 -46.5s-29.167 -20.667 -46.5 -26s-37.333 -8 -60 -8c-28 0 -52.667 3.33301 -74 10s-41.666 15.667 -60.999 27l51 110c10 -6 20.833 -11 32.5 -15s22.5 -6 32.5 -6
c13.333 0 23.833 2.5 31.5 7.5s14.834 14.167 21.501 27.5l-210 538h161l122 -365l117 365h158zM228.998 595l113 177l131 -57l-128 -120h-116z" />
    <glyph glyph-name="thorn" unicode="&#xfe;" horiz-adv-x="675" 
d="M631 268c0 -44.667 -6.83398 -84.332 -20.501 -118.999s-31.667 -63.834 -54 -87.501s-48.166 -41.5 -77.499 -53.5s-60 -18 -92 -18c-40.667 0 -74.167 8 -100.5 24s-48.5 34.667 -66.5 56v-230h-152v890h152v-271c18.667 25.333 41.167 46.166 67.5 62.499
s59.5 24.5 99.5 24.5c31.333 0 61.666 -6 90.999 -18s55.333 -29.833 78 -53.5s40.834 -52.667 54.501 -87s20.5 -74.166 20.5 -119.499zM478.999 268.002c0 22.667 -3.5 43.167 -10.5 61.5s-16.5 34 -28.5 47s-25.833 23 -41.5 30s-32.5 10.5 -50.5 10.5
s-34.833 -3.5 -50.5 -10.5s-29.334 -17 -41.001 -30s-21 -28.667 -28 -47s-10.5 -38.833 -10.5 -61.5s3.5 -43.167 10.5 -61.5s16.333 -34 28 -47s25.334 -23 41.001 -30s32.5 -10.5 50.5 -10.5s34.833 3.5 50.5 10.5s29.5 17 41.5 30s21.5 28.667 28.5 47
s10.5 38.833 10.5 61.5z" />
    <glyph glyph-name="ydieresis" unicode="&#xff;" horiz-adv-x="600" 
d="M372 -13c-10 -27.333 -20.6689 -50.5 -32.002 -69.5s-23.833 -34.5 -37.5 -46.5s-29.167 -20.667 -46.5 -26s-37.333 -8 -60 -8c-28 0 -52.667 3.33301 -74 10s-41.666 15.667 -60.999 27l51 110c10 -6 20.833 -11 32.5 -15s22.5 -6 32.5 -6
c13.333 0 23.833 2.5 31.5 7.5s14.834 14.167 21.501 27.5l-210 538h161l122 -365l117 365h158zM333.998 595v135h146v-135h-146zM119.998 595v135h146v-135h-146z" />
    <glyph glyph-name="dotlessi" unicode="&#x131;" horiz-adv-x="302" 
d="M75 0v536h152v-536h-152z" />
    <glyph glyph-name="Lslash" unicode="&#x141;" horiz-adv-x="649" 
d="M114 0v262l-75 -22v143l75 22v295h152v-249l192 57v-143l-192 -57v-168h351v-140h-503z" />
    <glyph glyph-name="lslash" unicode="&#x142;" horiz-adv-x="362" 
d="M256 0h-150v280l-76 -23v143l76 23v307h150v-263l76 23v-143l-76 -23v-324z" />
    <glyph glyph-name="OE" unicode="&#x152;" horiz-adv-x="1075" 
d="M425 0c-54.667 0 -104.834 8.83301 -150.501 26.5s-85 42.167 -118 73.5s-58.5 68.333 -76.5 111s-27 88.667 -27 138s9 95.5 27 138.5s43.5 80.167 76.5 111.5s72.333 56 118 74s95.834 27 150.501 27h592v-137h-350v-142h305v-137h-305v-147h355v-137h-597zM514 561
l-89 0.000976562c-31.333 0 -60 -5 -86 -15s-48.167 -24.333 -66.5 -43s-32.666 -40.834 -42.999 -66.501s-15.5 -54.167 -15.5 -85.5s5.16699 -60 15.5 -86s24.666 -48.333 42.999 -67s40.5 -33.167 66.5 -43.5s54.667 -15.5 86 -15.5h89v422z" />
    <glyph glyph-name="oe" unicode="&#x153;" horiz-adv-x="1033" 
d="M532 83c-24.667 -29.333 -54.999 -52.499 -90.999 -69.499s-75.667 -25.5 -119 -25.5c-38 0 -74 7.16699 -108 21.5s-63.833 34 -89.5 59s-45.834 54.5 -60.501 88.5s-22 70.333 -22 109s7.5 75 22.5 109s35.333 63.667 61 89s55.834 45.333 90.501 60s72 22 112 22
c43.333 0 82.5 -8.33301 117.5 -25s64.833 -39.667 89.5 -69c22 28.667 49.667 51.5 83 68.5s71 25.5 113 25.5c44 0 82 -8 114 -24s58.667 -37.5 80 -64.5s37.166 -58.167 47.499 -93.5s15.5 -72 15.5 -110c0 -7.33301 -0.166992 -13.833 -0.5 -19.5
s-0.833008 -12.167 -1.5 -19.5h-373c8 -34.667 23.333 -60.834 46 -78.501s51 -26.5 85 -26.5c25.333 0 48 4.33301 68 13s40.667 22.667 62 42l87 -77c-25.333 -31.333 -56 -55.833 -92 -73.5s-78.333 -26.5 -127 -26.5c-45.333 0 -85.833 8.33301 -121.5 25
s-65.167 40 -88.5 70zM840.001 310.001c-4.66699 34 -16.667 61.501 -36 82.501s-45 31.5 -77 31.5s-57.833 -10.333 -77.5 -31s-32.5 -48.334 -38.5 -83.001h229zM462.001 266.002c0 20 -3.33008 39.167 -9.99707 57.5s-16 34.166 -28 47.499s-26.333 24 -43 32
s-35 12 -55 12c-20.667 0 -39.334 -3.83301 -56.001 -11.5s-30.834 -18.334 -42.501 -32.001s-20.5 -29.334 -26.5 -47.001s-9 -36.5 -9 -56.5s3.33301 -39.167 10 -57.5s16 -34.166 28 -47.499s26.333 -24 43 -32s35 -12 55 -12c21.333 0 40.166 3.83301 56.499 11.5
s30.333 18.334 42 32.001s20.5 29.334 26.5 47.001s9 36.5 9 56.5z" />
    <glyph glyph-name="Scaron" unicode="&#x160;" horiz-adv-x="640" 
d="M590 207c0 -34.667 -6.33398 -65.5029 -19.001 -92.5029s-30.334 -49.667 -53.001 -68s-49.667 -32.333 -81 -42s-66 -14.5 -104 -14.5c-53.333 0 -105.666 9.16699 -156.999 27.5s-98 46.5 -140 84.5l91 109c32 -26 64.833 -46.667 98.5 -62s70.5 -23 110.5 -23
c32 0 56.833 5.83301 74.5 17.5s26.5 27.834 26.5 48.501v2c0 10 -1.83301 18.833 -5.5 26.5s-10.667 14.834 -21 21.501s-24.666 13.334 -42.999 20.001s-42.166 13.667 -71.499 21c-35.333 9.33301 -67.333 19.166 -96 29.499s-53 23.333 -73 39s-35.5 35.167 -46.5 58.5
s-16.5 52.333 -16.5 87v2c0 32 6 60.833 18 86.5s28.833 47.834 50.5 66.501s47.5 33 77.5 43s63 15 99 15c51.333 0 98.5 -7.66699 141.5 -23s82.5 -37.333 118.5 -66l-80 -116c-31.333 21.333 -62 38.166 -92 50.499s-60 18.5 -90 18.5s-52.5 -5.83301 -67.5 -17.5
s-22.5 -26.167 -22.5 -43.5v-2c0 -11.333 2.16699 -21.166 6.5 -29.499s12.166 -15.833 23.499 -22.5s26.833 -13 46.5 -19s44.5 -13 74.5 -21c35.333 -9.33301 66.833 -19.833 94.5 -31.5s51 -25.667 70 -42s33.333 -35.5 43 -57.5s14.5 -48.333 14.5 -79v-2z
M396.999 911.997h115l-123 -157h-144l-123 157h117l79 -66z" />
    <glyph glyph-name="scaron" unicode="&#x161;" horiz-adv-x="502" 
d="M461 163c0 -30 -5.16699 -55.833 -15.5 -77.5s-24.833 -39.5 -43.5 -53.5s-40.334 -24.5 -65.001 -31.5s-51.667 -10.5 -81 -10.5c-38 0 -76.833 6.5 -116.5 19.5s-77.5 33.5 -113.5 61.5l65 100c29.333 -21.333 58.5 -37.333 87.5 -48s56.167 -16 81.5 -16
c22 0 38.167 3.66699 48.5 11s15.5 17 15.5 29v2c0 8 -3 15 -9 21s-14.167 11.167 -24.5 15.5s-22.166 8.5 -35.499 12.5l-42 13c-18.667 5.33301 -37.5 11.833 -56.5 19.5s-36.167 17.667 -51.5 30s-27.833 27.5 -37.5 45.5s-14.5 40 -14.5 66v2
c0 27.333 5.16699 51.5 15.5 72.5s24.333 38.833 42 53.5s38.5 25.667 62.5 33s49.333 11 76 11c34 0 68.5 -5.5 103.5 -16.5s67.167 -26.167 96.5 -45.5l-58 -105c-26.667 15.333 -52.667 27.5 -78 36.5s-47.666 13.5 -66.999 13.5c-18.667 0 -32.667 -3.5 -42 -10.5
s-14 -15.833 -14 -26.5v-2c0 -7.33301 3 -13.833 9 -19.5s14 -11 24 -16s21.5 -9.66699 34.5 -14l41.5 -14.5c18.667 -6 37.667 -13.167 57 -21.5s36.666 -18.5 51.999 -30.5s28 -26.667 38 -44s15 -38.333 15 -63v-2zM335 752h115l-123 -157h-144l-123 157h117l79 -66z" />
    <glyph glyph-name="Ydieresis" unicode="&#x178;" horiz-adv-x="716" 
d="M435 279v-279h-154v276l-269 424h180l167 -281l170 281h175zM392 755v135h146v-135h-146zM178 755v135h146v-135h-146z" />
    <glyph glyph-name="Zcaron" unicode="&#x17d;" horiz-adv-x="708" 
d="M63 0v117l385 448h-373v135h571v-117l-385 -448h385v-135h-583zM437 912h115l-123 -157h-144l-123 157h117l79 -66z" />
    <glyph glyph-name="zcaron" unicode="&#x17e;" horiz-adv-x="563" 
d="M50 0v107l277 306h-268v123h457v-107l-278 -306h278v-123h-466zM369 752h115l-123 -157h-144l-123 157h117l79 -66z" />
    <glyph glyph-name="florin" unicode="&#x192;" horiz-adv-x="536" 
d="M500 567c-12 3.33301 -23.6641 5.83496 -34.9971 7.50195s-22.333 2.5 -33 2.5c-42 0 -67 -22.667 -75 -68l-7 -40h115v-125h-137l-33 -187c-10.667 -58.667 -31.5 -100.334 -62.5 -125.001s-75.167 -37 -132.5 -37c-12.667 0 -23.334 0.333008 -32.001 1
s-17.667 2 -27 4v123c13.333 -2 25.666 -3 36.999 -3c21.333 0 37.333 4.66699 48 14s18 25 22 47l28 163h-67v125h89l14 74c9.33301 51.333 28.166 91.166 56.499 119.499s72.5 42.5 132.5 42.5c41.333 0 74.333 -4 99 -12v-126z" />
    <glyph glyph-name="circumflex" unicode="&#x2c6;" 
d="M170 595h-115l123 157h144l123 -157h-117l-79 66z" />
    <glyph glyph-name="caron" unicode="&#x2c7;" 
d="M330 752h115l-123 -157h-144l-123 157h117l79 -66z" />
    <glyph glyph-name="breve" unicode="&#x2d8;" 
d="M438 752c-4.66699 -50.667 -23.832 -89.834 -57.499 -117.501s-77.167 -41.5 -130.5 -41.5s-96.833 13.833 -130.5 41.5s-52.834 66.834 -57.501 117.501h102c6 -18 15.5 -32.5 28.5 -43.5s32.167 -16.5 57.5 -16.5s44.5 5.5 57.5 16.5s22.5 25.5 28.5 43.5h102z" />
    <glyph glyph-name="dotaccent" unicode="&#x2d9;" 
d="M175 595v135h150v-135h-150z" />
    <glyph glyph-name="ring" unicode="&#x2da;" 
d="M371 710c0 -16 -3.33301 -31.167 -10 -45.5s-15.5 -26.666 -26.5 -36.999s-23.833 -18.666 -38.5 -24.999s-30 -9.5 -46 -9.5s-31.333 3.16699 -46 9.5s-27.5 14.666 -38.5 24.999s-19.833 22.666 -26.5 36.999s-10 29.5 -10 45.5s3.33301 31.167 10 45.5
s15.5 26.666 26.5 36.999s23.833 18.666 38.5 24.999s30 9.5 46 9.5s31.333 -3.16699 46 -9.5s27.5 -14.666 38.5 -24.999s19.833 -22.666 26.5 -36.999s10 -29.5 10 -45.5zM312 710c0 17.333 -6 32 -18 44s-26.667 18 -44 18s-32 -6 -44 -18s-18 -26.667 -18 -44
s6 -32 18 -44s26.667 -18 44 -18s32 6 44 18s18 26.667 18 44z" />
    <glyph glyph-name="ogonek" unicode="&#x2db;" 
d="M291 10c-4 -14 -6 -26.998 -6 -38.998c0 -20.667 6.33301 -36.667 19 -48s35 -18 67 -20v-67c-64 -5.33301 -113.333 1.5 -148 20.5s-52 48.5 -52 88.5c0 11.333 1.5 22.666 4.5 33.999s6.83301 21.666 11.5 30.999h104z" />
    <glyph glyph-name="tilde" unicode="&#x2dc;" 
d="M456 733c-11.333 -42 -25.999 -75.5 -43.999 -100.5s-44.667 -37.5 -80 -37.5c-15.333 0 -30.166 2 -44.499 6s-27.833 8.5 -40.5 13.5l-35 13.5c-10.667 4 -20.667 6 -30 6c-15.333 0 -26.833 -4.16699 -34.5 -12.5s-15.167 -20.5 -22.5 -36.5l-81 25
c11.333 42 26.166 75.5 44.499 100.5s44.833 37.5 79.5 37.5c15.333 0 30.166 -2 44.499 -6s27.833 -8.5 40.5 -13.5l35.5 -13.5c11 -4 20.833 -6 29.5 -6c15.333 0 26.833 4.16699 34.5 12.5s15.167 20.5 22.5 36.5z" />
    <glyph glyph-name="hungarumlaut" unicode="&#x2dd;" 
d="M231 595l113 177l128 -57l-130 -120h-111zM36 595l111 177l128 -57l-128 -120h-111z" />
    <glyph glyph-name="pi" unicode="&#x3c0;" horiz-adv-x="830" 
d="M777 351c0 -49.333 -9.33301 -96 -28 -140s-44.334 -82.5 -77.001 -115.5s-71.167 -59.167 -115.5 -78.5s-91.833 -29 -142.5 -29s-98 9.5 -142 28.5s-82.167 44.833 -114.5 77.5s-57.833 71 -76.5 115s-28 90.667 -28 140s9.33301 96 28 140s44.334 82.5 77.001 115.5
s71.167 59.167 115.5 78.5s91.833 29 142.5 29s98 -9.5 142 -28.5s82.167 -44.833 114.5 -77.5s57.833 -71 76.5 -115s28 -90.667 28 -140zM735 351c0 44.667 -7.99902 86.5 -23.999 125.5s-38.333 73 -67 102s-62.5 51.833 -101.5 68.5s-81.167 25 -126.5 25
c-46 0 -88.5 -8.5 -127.5 -25.5s-72.833 -40.167 -101.5 -69.5s-51.167 -63.5 -67.5 -102.5s-24.5 -80.833 -24.5 -125.5s8.16699 -86.5 24.5 -125.5s38.666 -73 66.999 -102s62 -51.833 101 -68.5s81.167 -25 126.5 -25c46 0 88.5 8.5 127.5 25.5s72.833 40.167 101.5 69.5
s51.167 63.5 67.5 102.5s24.5 80.833 24.5 125.5zM588.001 415c0 -22 -4.16699 -41.5 -12.5 -58.5s-19.5 -31.167 -33.5 -42.5s-30.5 -19.833 -49.5 -25.5s-39.167 -8.5 -60.5 -8.5h-64v-116h-86v385h158c46 0 82.167 -12.333 108.5 -37s39.5 -57 39.5 -97zM501.001 414
c0 19.333 -6.16797 34 -18.501 44s-29.166 15 -50.499 15h-64v-118h66c21.333 0 37.833 5.5 49.5 16.5s17.5 25.167 17.5 42.5z" />
    <glyph glyph-name="endash" unicode="&#x2013;" horiz-adv-x="528" 
d="M50 239v142h428v-142h-428z" />
    <glyph glyph-name="emdash" unicode="&#x2014;" horiz-adv-x="898" 
d="M50 239v142h798v-142h-798z" />
    <glyph glyph-name="quoteleft" unicode="&#x2018;" horiz-adv-x="286" 
d="M255 642c-70.667 -7.33301 -103.333 -40.333 -98 -99h62v-160h-162v135c0 66 16 113.5 48 142.5s77.667 43.833 137 44.5z" />
    <glyph glyph-name="quoteright" unicode="&#x2019;" horiz-adv-x="286" 
d="M31 441c70.667 7.33301 103.333 40.333 98 99h-62v160h162v-135c0 -66 -16 -113.333 -48 -142s-77.667 -43.667 -137 -45z" />
    <glyph glyph-name="quotesinglbase" unicode="&#x201a;" horiz-adv-x="286" 
d="M26 -99c70.667 7.33301 103.333 40.333 98 99h-62v160h162v-135c0 -66 -16 -113.5 -48 -142.5s-77.667 -43.833 -137 -44.5z" />
    <glyph glyph-name="quotedblleft" unicode="&#x201c;" horiz-adv-x="540" 
d="M509 642c-70.667 -7.33301 -103.333 -40.333 -98 -99h62v-160h-162v135c0 66 16 113.5 48 142.5s77.667 43.833 137 44.5zM255.001 642c-70.667 -7.33301 -103.333 -40.333 -98 -99h62v-160h-162v135c0 66 16 113.5 48 142.5s77.667 43.833 137 44.5z" />
    <glyph glyph-name="quotedblright" unicode="&#x201d;" horiz-adv-x="540" 
d="M285 441c70.667 7.33301 103.333 40.333 98 99h-62v160h162v-135c0 -66 -16 -113.333 -48 -142s-77.667 -43.667 -137 -45zM30.999 441c70.667 7.33301 103.333 40.333 98 99h-62v160h162v-135c0 -66 -16 -113.333 -48 -142s-77.667 -43.667 -137 -45z" />
    <glyph glyph-name="quotedblbase" unicode="&#x201e;" horiz-adv-x="540" 
d="M280 -99c70.667 7.33301 103.333 40.333 98 99h-62v160h162v-135c0 -66 -16 -113.5 -48 -142.5s-77.667 -43.833 -137 -44.5zM25.999 -99c70.667 7.33301 103.333 40.333 98 99h-62v160h162v-135c0 -66 -16 -113.5 -48 -142.5s-77.667 -43.833 -137 -44.5z" />
    <glyph glyph-name="dagger" unicode="&#x2020;" horiz-adv-x="410" 
d="M247 238h-84l10 270l-120 -10v83l119 -10l-13 129h92l-13 -129l119 10v-83l-120 10z" />
    <glyph glyph-name="daggerdbl" unicode="&#x2021;" horiz-adv-x="430" 
d="M248 129l13 -129h-92l13 129l-119 -10v83l119 -10l-9 158l9 158l-119 -10v83l119 -10l-13 129h92l-13 -129l119 10v-83l-119 10l9 -158l-9 -158l119 10v-83z" />
    <glyph glyph-name="bullet" unicode="&#x2022;" 
d="M399 352c0 -20.667 -3.83301 -40 -11.5 -58s-18.334 -33.667 -32.001 -47s-29.5 -24 -47.5 -32s-37.333 -12 -58 -12s-40 4 -58 12s-33.667 18.667 -47 32s-24 29 -32 47s-12 37.333 -12 58s4 40 12 58s18.667 33.833 32 47.5s29 24.334 47 32.001s37.333 11.5 58 11.5
s40 -3.83301 58 -11.5s33.833 -18.334 47.5 -32.001s24.334 -29.5 32.001 -47.5s11.5 -37.333 11.5 -58z" />
    <glyph glyph-name="ellipsis" unicode="&#x2026;" horiz-adv-x="840" 
d="M620 0v156h158v-156h-158zM341 0v156h158v-156h-158zM62 0v156h158v-156h-158z" />
    <glyph glyph-name="perthousand" unicode="&#x2030;" horiz-adv-x="1240" 
d="M385 530c0 -24.667 -4.16699 -48 -12.5 -70s-20 -41.167 -35 -57.5s-33 -29.166 -54 -38.499s-44.167 -14 -69.5 -14s-48.333 4.66699 -69 14s-38.5 22 -53.5 38s-26.5 34.833 -34.5 56.5s-12 44.834 -12 69.501c0 25.333 4.16699 48.833 12.5 70.5s20 40.667 35 57
s33 29.166 54 38.499s44.167 14 69.5 14s48.333 -4.66699 69 -14s38.5 -22 53.5 -38s26.5 -34.833 34.5 -56.5s12 -44.834 12 -69.501zM745 700l-511 -700h-119l511 700h119zM1195 172c0 -24.667 -4.16699 -48 -12.5 -70s-20 -41.167 -35 -57.5s-33 -29.166 -54 -38.499
s-44.167 -14 -69.5 -14s-48.333 4.66699 -69 14s-38.5 22 -53.5 38s-26.5 34.833 -34.5 56.5s-12 44.834 -12 69.501c0 25.333 4.16699 48.833 12.5 70.5s20 40.667 35 57s33 29.166 54 38.499s44.167 14 69.5 14s48.333 -4.66699 69 -14s38.5 -22 53.5 -38
s26.5 -34.833 34.5 -56.5s12 -44.834 12 -69.501zM815 172c0 -24.667 -4.16699 -48 -12.5 -70s-20 -41.167 -35 -57.5s-33 -29.166 -54 -38.499s-44.167 -14 -69.5 -14s-48.333 4.66699 -69 14s-38.5 22 -53.5 38s-26.5 34.833 -34.5 56.5s-12 44.834 -12 69.501
c0 25.333 4.16699 48.833 12.5 70.5s20 40.667 35 57s33 29.166 54 38.499s44.167 14 69.5 14s48.333 -4.66699 69 -14s38.5 -22 53.5 -38s26.5 -34.833 34.5 -56.5s12 -44.834 12 -69.501zM280 528c0 24 -6 44.833 -18 62.5s-28 26.5 -48 26.5
c-21.333 0 -37.333 -8.66699 -48 -26s-16 -37.666 -16 -60.999c0 -24 6 -44.833 18 -62.5s28 -26.5 48 -26.5c21.333 0 37.333 8.66699 48 26s16 37.666 16 60.999zM1090 170c0 24 -6 44.833 -18 62.5s-28 26.5 -48 26.5c-21.333 0 -37.333 -8.66699 -48 -26
s-16 -37.666 -16 -60.999c0 -24 6 -44.833 18 -62.5s28 -26.5 48 -26.5c21.333 0 37.333 8.66699 48 26s16 37.666 16 60.999zM710 170c0 24 -6 44.833 -18 62.5s-28 26.5 -48 26.5c-21.333 0 -37.333 -8.66699 -48 -26s-16 -37.666 -16 -60.999c0 -24 6 -44.833 18 -62.5
s28 -26.5 48 -26.5c21.333 0 37.333 8.66699 48 26s16 37.666 16 60.999z" />
    <glyph glyph-name="guilsinglleft" unicode="&#x2039;" horiz-adv-x="373" 
d="M325 440l-130 -171l130 -171l-116 -58l-168 224v8l168 224z" />
    <glyph glyph-name="guilsinglright" unicode="&#x203a;" horiz-adv-x="373" 
d="M48 96l130 171l-130 171l116 58l168 -224v-8l-168 -224z" />
    <glyph glyph-name="fraction" unicode="&#x2044;" horiz-adv-x="480" 
d="M529 758l-466 -856h-134l466 856h134z" />
    <glyph glyph-name="trademark" unicode="&#x2122;" horiz-adv-x="690" 
d="M502 465h-6l-85 135v-208h-66v308h74l81 -130l81 130h72v-308h-66v208zM188 392h-70v246h-92v62h254v-62h-92v-246z" />
    <glyph glyph-name="Omega" unicode="&#x2126;" horiz-adv-x="764" 
d="M749 530v-123.999h-121v-406h-152v406h-63v125h63v34c0 59.333 14.167 102.833 42.5 130.5s69.5 41.5 123.5 41.5c24 0 44.5 -1.33301 61.5 -4s32.5 -6.33398 46.5 -11.001v-126c-11.333 4 -22.333 7.16699 -33 9.5s-22.667 3.5 -36 3.5c-36.667 0 -55 -19.333 -55 -58
v-21h123zM367 530.001v-123.999h-121v-406h-152v406h-63v125h63v34c0 59.333 14.167 102.833 42.5 130.5s69.5 41.5 123.5 41.5c24 0 44.5 -1.33301 61.5 -4s32.5 -6.33398 46.5 -11.001v-126c-11.333 4 -22.333 7.16699 -33 9.5s-22.667 3.5 -36 3.5
c-36.667 0 -55 -19.333 -55 -58v-21h123z" />
    <glyph glyph-name="radical" unicode="&#x221a;" horiz-adv-x="1066" 
d="M749 530v-123.999h-121v-406h-152v406h-63v125h63v34c0 59.333 14.167 102.833 42.5 130.5s69.5 41.5 123.5 41.5c24 0 44.5 -1.33301 61.5 -4s32.5 -6.33398 46.5 -11.001v-126c-11.333 4 -22.333 7.16699 -33 9.5s-22.667 3.5 -36 3.5c-36.667 0 -55 -19.333 -55 -58
v-21h123zM367 530.001v-123.999h-121v-406h-152v406h-63v125h63v34c0 59.333 14.167 102.833 42.5 130.5s69.5 41.5 123.5 41.5c24 0 44.5 -1.33301 61.5 -4s32.5 -6.33398 46.5 -11.001v-126c-11.333 4 -22.333 7.16699 -33 9.5s-22.667 3.5 -36 3.5
c-36.667 0 -55 -19.333 -55 -58v-21h123zM839 0.00195312v730h152v-730h-152z" />
    <glyph glyph-name="approxequal" unicode="&#x2248;" horiz-adv-x="1066" 
d="M835 595v135h160v-135h-160zM749 530v-123.999h-121v-406h-152v406h-63v125h63v34c0 59.333 14.167 102.833 42.5 130.5s69.5 41.5 123.5 41.5c24 0 44.5 -1.33301 61.5 -4s32.5 -6.33398 46.5 -11.001v-126c-11.333 4 -22.333 7.16699 -33 9.5s-22.667 3.5 -36 3.5
c-36.667 0 -55 -19.333 -55 -58v-21h123zM367 530.001v-123.999h-121v-406h-152v406h-63v125h63v34c0 59.333 14.167 102.833 42.5 130.5s69.5 41.5 123.5 41.5c24 0 44.5 -1.33301 61.5 -4s32.5 -6.33398 46.5 -11.001v-126c-11.333 4 -22.333 7.16699 -33 9.5
s-22.667 3.5 -36 3.5c-36.667 0 -55 -19.333 -55 -58v-21h123zM839 0.00195312v536h152v-536h-152z" />
    <glyph glyph-name="fi" unicode="&#xfb01;" horiz-adv-x="684" 
d="M453 595v135h160v-135h-160zM367 530v-123.999h-121v-406h-152v406h-63v125h63v34c0 59.333 14.167 102.833 42.5 130.5s69.5 41.5 123.5 41.5c24 0 44.5 -1.33301 61.5 -4s32.5 -6.33398 46.5 -11.001v-126c-11.333 4 -22.333 7.16699 -33 9.5s-22.667 3.5 -36 3.5
c-36.667 0 -55 -19.333 -55 -58v-21h123zM457 0.000976562v536h152v-536h-152z" />
    <glyph glyph-name="fl" unicode="&#xfb02;" horiz-adv-x="684" 
d="M367 530v-123.999h-121v-406h-152v406h-63v125h63v34c0 59.333 14.167 102.833 42.5 130.5s69.5 41.5 123.5 41.5c24 0 44.5 -1.33301 61.5 -4s32.5 -6.33398 46.5 -11.001v-126c-11.333 4 -22.333 7.16699 -33 9.5s-22.667 3.5 -36 3.5c-36.667 0 -55 -19.333 -55 -58
v-21h123zM457 0.000976562v730h152v-730h-152z" />
    <glyph glyph-name=".null" horiz-adv-x="0" 
 />
    <glyph glyph-name="NUL" horiz-adv-x="0" 
 />
    <glyph glyph-name="apple" horiz-adv-x="967" 
d="M101 0v750h767v-750h-767zM853 -104l-3 20l-10 -21h-2l-10 21l-3 -20h-6l6 34h1l13 -26l13 26h1l6 -34h-6zM806 -87c0 -5.33301 -1.49902 -9.66602 -4.49902 -12.999s-7.16699 -5 -12.5 -5s-9.5 1.66699 -12.5 5s-4.5 7.33301 -4.5 12
c0 5.33301 1.66699 9.66602 5 12.999s7.66602 5 12.999 5c4.66699 0 8.5 -1.66699 11.5 -5s4.5 -7.33301 4.5 -12zM757.001 -102c-2 -2 -5.33398 -3 -10.001 -3c-12 0 -18 5.66699 -18 17c0 5.33301 1.66699 9.66602 5 12.999s7.66602 5 12.999 5
c4.66699 0 8.33398 -1 11.001 -3l-2 -5c-2 2 -5 3 -9 3c-3.33301 0 -6.16602 -1.16699 -8.49902 -3.5s-3.5 -5.16602 -3.5 -8.49902c0 -8.66699 4.33301 -13 13 -13c2.66699 0 6 1.33301 10 4zM689 -90v-14h-6v14l-14 19l6 1l11 -15l9 14h7zM650 -104v15h-16v-15h-6v33h6
v-13h16v13h6v-33h-6zM612 -82c0 -8 -5.66699 -11.999 -17 -11.999v-10h-6v33c9.33301 1.33301 15.5 0.666016 18.5 -2.00098s4.5 -5.66699 4.5 -9zM570 -103.999l-4 8h-14l-3 -8h-6l15 34h2l16 -34h-6zM527 -103.999l-8 10.999h-5v-11h-6v33
c9.33301 1.33301 15.5 0.833008 18.5 -1.5s4.5 -5.16602 4.5 -8.49902c0 -4.66699 -2.33301 -8 -7 -10l10 -13h-7zM491 -101c-4 -2.66699 -8.33301 -3.99902 -13 -3.99902c-5.33301 0 -9.66602 1.5 -12.999 4.5s-5 7.16699 -5 12.5s1.83301 9.66602 5.5 12.999
s8.16699 5 13.5 5c4 0 8 -1.33301 12 -4l-2 -5c-2.66699 2.66699 -6.33398 4 -11.001 4c-8 0 -12 -4.33301 -12 -13c0 -8 4.33301 -12 13 -12c1.33301 0 3.33301 0.666992 6 2v7h-9v5h15v-15zM447 -86.999c0 -5.33301 -1.49902 -9.66602 -4.49902 -12.999
s-7.16699 -5 -12.5 -5s-9.5 1.66699 -12.5 5s-4.5 7.33301 -4.5 12c0 5.33301 1.66699 9.66602 5 12.999s7.66602 5 12.999 5c4.66699 0 8.5 -1.66699 11.5 -5s4.5 -7.33301 4.5 -12zM400.001 -81.999c0 -8 -5.66699 -11.999 -17 -11.999v-10h-6v33
c9.33301 1.33301 15.5 0.666016 18.5 -2.00098s4.5 -5.66699 4.5 -9zM351.001 -89.998v-14h-6v14l-14 19l6 1l11 -15l9 14h7zM323.001 -75.998h-12v-28h-6v28h-12v5h30v-5zM255.001 -104.998h-1l-11 23l-10 -23h-1l-12 34l6 1l7 -23l10 23h1l10 -23l7 22h6z
M199.001 -104.998h-1l-11 23l-10 -23h-1l-12 34l6 1l7 -23l10 23h1l10 -23l7 22h6zM143.001 -104.998h-1l-11 23l-10 -23h-1l-12 34l6 1l7 -23l10 23h1l10 -23l7 22h6zM716.001 -100.998c0 -2.66699 -1.33301 -4 -4 -4s-4 1.33301 -4 4s1.33301 4 4 4s4 -1.33301 4 -4z
M284.001 -100.998c0 -2.66699 -1.33301 -4 -4 -4s-4 1.33301 -4 4s1.33301 4 4 4s4 -1.33301 4 -4zM559.001 686.002l-0.00195312 5.00098c0 3.33301 -0.333008 5.66602 -1 6.99902c-1.33301 -0.666992 -7 -1 -17 -1s-16 0.333008 -18 1v-7c-0.666992 -2 -1 -3.66699 -1 -5
h2c0.666992 2 1.66699 3.66699 3 5c2 2.66699 4.33301 4 7 4c2 0 3 -1 3 -3v-23c0 -2.66699 -0.666992 -4.33398 -2 -5.00098h-3v-2h17v2h-2c-2 0.666992 -3 2.33398 -3 5.00098v23c0 2 1 3 3 3c2.66699 0 5.33398 -1.33301 8.00098 -4
c0.666992 -1.33301 1.33398 -3 2.00098 -5h2zM503.999 664.003h-2.99902c-2 0.666992 -3 2.33398 -3 5.00098v21c0 2.66699 1 4.33398 3 5.00098h3v2h-18v-1v-1h3c1.33301 -0.666992 2 -2.33398 2 -5.00098v-9h-17v9c0 2.66699 1 4.33398 3 5.00098h2v1v1h-17v-2h3
c1.33301 -0.666992 2 -2.33398 2 -5.00098v-21c0 -2 -0.666992 -3.33301 -2 -4s-2.33301 -1 -3 -1v-2h17v2c-0.666992 0 -1.33398 0.333008 -2.00098 1c-2 0.666992 -3 2 -3 4v10h17v-10c0 -2.66699 -0.666992 -4.33398 -2 -5.00098h-3v-2h18v2zM439 664.003
l-1.99805 -0.00292969c-2 0.666992 -3 2.33398 -3 5.00098v21c0 2.66699 1 4.33398 3 5.00098h2v2h-29l-2 -10l2 -1l2 4c2 2.66699 4.33301 4 7 4h4c2.66699 0 4 -1 4 -3v-10h-4c-2.66699 0 -4.33398 1 -5.00098 3c-0.666992 0.666992 -1 1.33398 -1 2.00098h-2v-13h2
c0 1.33301 0.333008 2.33301 1 3c0.666992 2 2.33398 3 5.00098 3h4v-11c0 -2 -1.33301 -3 -4 -3h-4c-2.66699 0 -5.33398 1.66699 -8.00098 5c-0.666992 0.666992 -1.33398 2 -2.00098 4l-2 -1l2 -11h30v2zM827.002 624h-685v-6h685v6zM696.002 540
c0 10 -3.83301 18.833 -11.5 26.5s-16.167 11.5 -25.5 11.5c-4.66699 0 -9.66699 -1.66699 -15 -5s-8 -9 -8 -17c0 -10.667 3.83301 -19.667 11.5 -27s16.167 -11 25.5 -11c4.66699 0 9.66699 1.66699 15 5s8 9 8 17zM589.002 537c0 8 -4.66895 13.6689 -14.002 17.002
c3.33301 2 5 5 5 9c0 3.33301 -1.66699 6.66602 -5 9.99902s-8.66602 5 -15.999 5c-8.66699 0 -13 -3.66699 -13 -11c0 -4 1.66699 -6 5 -6c2.66699 0 4 1 4 3s-0.5 3.16699 -1.5 3.5s-1.5 1.16602 -1.5 2.49902c0 3.33301 2.33301 5 7 5c6.66699 0 10 -4 10 -12
c0 -2.66699 -0.666992 -4.66699 -2 -6c-10.667 1.33301 -16 -0.666992 -16 -6c0 -4 2.66699 -6 8 -6c4 0 7.66699 1.66699 11 5c4 -2.66699 6 -7.66699 6 -15c0 -9.33301 -4 -14 -12 -14s-12 3 -12 9c0 2 1 3 3 3c0.666992 0 1.33398 -0.333008 2.00098 -1s1.66699 -1 3 -1
c2.66699 0 4 1.66699 4 5s-2.33301 5 -7 5c-6 0 -9 -3.33301 -9 -10c0 -8.66699 5.33301 -13 16 -13c8.66699 0 15 1.83301 19 5.5s6 8.16699 6 13.5zM295 537.002c0 8 -4.66895 13.6689 -14.002 17.002c3.33301 2 5 5 5 9c0 3.33301 -1.66699 6.66602 -5 9.99902
s-8.66602 5 -15.999 5c-8.66699 0 -13 -3.66699 -13 -11c0 -4 1.66699 -6 5 -6c2.66699 0 4 1 4 3s-0.5 3.16699 -1.5 3.5s-1.5 1.16602 -1.5 2.49902c0 3.33301 2.33301 5 7 5c6.66699 0 10 -4 10 -12c0 -2.66699 -0.666992 -4.66699 -2 -6
c-10.667 1.33301 -16 -0.666992 -16 -6c0 -4 2.66699 -6 8 -6c4 0 7.66699 1.66699 11 5c4 -2.66699 6 -7.66699 6 -15c0 -9.33301 -4 -14 -12 -14s-12 3 -12 9c0 2 1 3 3 3c0.666992 0 1.33398 -0.333008 2.00098 -1s1.66699 -1 3 -1c2.66699 0 4 1.66699 4 5
s-2.33301 5 -7 5c-6 0 -9 -3.33301 -9 -10c0 -8.66699 5.33301 -13 16 -13c8.66699 0 15 1.83301 19 5.5s6 8.16699 6 13.5zM819.998 522.004c-1.33301 0 -2.66699 0.333008 -4 1c-3.33301 1.33301 -5.33301 3.66602 -6 6.99902l-7 35c-0.666992 4 0.333008 6.33301 3 7
c1.33301 0.666992 2.66602 1 3.99902 1l-1 3h-28l1 -3c1.33301 0 2.66602 -0.333008 3.99902 -1c2.66699 -1.33301 4.33398 -3.66602 5.00098 -6.99902l3 -15h-24l-3 15c-0.666992 4 0.333008 6.33301 3 7c1.33301 0.666992 2.66602 1 3.99902 1l-1 3h-29l1 -3
c1.33301 0 2.66602 -0.333008 3.99902 -1c3.33301 -1.33301 5.33301 -3.66602 6 -6.99902l7 -35c0.666992 -4 -0.333008 -6.33301 -3 -7c-1.33301 -0.666992 -2.66602 -1 -3.99902 -1l1 -3h29l-1 3c-1.33301 0 -2.66602 0.333008 -3.99902 1
c-3.33301 1.33301 -5.33301 3.66602 -6 6.99902l-3 16h24l3 -16c0.666992 -4 -0.333008 -6.33301 -3 -7c-1.33301 -0.666992 -2.66602 -1 -3.99902 -1l1 -3h29zM496.997 522.004c-1.33301 0 -2.66602 0.333008 -3.99902 1c-3.33301 1.33301 -5.33301 3.66602 -6 6.99902
l-7 35c-0.666992 4 0.333008 6.33301 3 7c1.33301 0.666992 2.66602 1 3.99902 1l-1 3h-45c0.666992 -1.33301 0.666992 -4.66602 0 -9.99902v-7h4c0 2.66699 0.333008 5 1 7c2.66699 4 6.66699 6 12 6h4c3.33301 0 5.33301 -2 6 -6l3 -16h-4c-4 0 -7 1.66699 -9 5
c-1.33301 0.666992 -2.33301 2 -3 4h-3l5 -23h3c0 2 0.333008 4 1 6c1.33301 3.33301 3.66602 5 6.99902 5h4l3 -17c0.666992 -4 -0.333008 -6.33301 -3 -7c-1.33301 -0.666992 -2.66602 -1 -3.99902 -1l1 -3h29zM201.997 522.004c-1.33301 0 -2.66699 0.334961 -4 1.00195
c-3.33301 1.33301 -5.33301 3.66602 -6 6.99902l-7 35c-0.666992 4 0.333008 6.33301 3 7c1.33301 0.666992 2.66602 1 3.99902 1l-1 3h-27c-13.333 0 -20 -5 -20 -15c0 -4 1.83301 -7.33301 5.5 -10s8.16699 -4.33398 13.5 -5.00098l-9 -16c-2 -4 -5 -6.33301 -9 -7
c-1.33301 -0.666992 -3 -1 -5 -1l1 -3h19l12 23c1.33301 2 3 3 5 3l3 -15c0.666992 -4 -0.333008 -6.33301 -3 -7c-1.33301 -0.666992 -2.66602 -1 -3.99902 -1l1 -3h29zM399.996 521.006c0 1.33301 -1.00195 3.00098 -3.00195 5.00098s-5.33301 3.33301 -10 4
c-2.66699 2 -4.16699 5.5 -4.5 10.5s-1 10.333 -2 16s-3 10.667 -6 15s-8.5 6.5 -16.5 6.5c-3.33301 0 -6.33301 -1.16699 -9 -3.5s-4 -4.5 -4 -6.5c0 -3.33301 1.66699 -5 5 -5c2.66699 0 4 2 4 6s1.66699 6 5 6s5.5 -1.66699 6.5 -5s1.83301 -7.33301 2.5 -12
s1.83398 -9.5 3.50098 -14.5s4.5 -9.5 8.5 -13.5c-7.33301 0 -12.166 -2.16699 -14.499 -6.5s-5.16602 -6.5 -8.49902 -6.5s-5 1.33301 -5 4c0 1.33301 0.333008 2.16602 1 2.49902s1 1.16602 1 2.49902c0 3.33301 -1.66699 5 -5 5s-5 -2.33301 -5 -7
c0 -3.33301 1.66699 -6.16602 5 -8.49902s6.66602 -3.5 9.99902 -3.5c9.33301 0 14.5 2.16699 15.5 6.5s4.16699 6.5 9.5 6.5c2.66699 -4.66699 6.66699 -7 12 -7c2.66699 0 4 1 4 3zM826.994 481.007h-685v-6h685v6zM826.994 440.007h-147v-62h36v28h11v-65h-14v-33h81v33
h-14v65h11v-28h36v62zM647.994 440.007h-81v-34h11l-15 -23l-15 23h10v34h-62v-34h12l37 -46v-19h-14v-33h81v33h-15v20l37 45h14v34zM457.994 341.007h-14v65h14v34h-96c-14.667 0 -26.167 -3.83301 -34.5 -11.5s-12.5 -17.167 -12.5 -28.5s4.16699 -20.833 12.5 -28.5
s19.833 -11.5 34.5 -11.5h30v-19h-15v-33h81v33zM282.994 341.007h-14v65h14v34h-141v-62h41v28h33v-20h-24v-24h24v-21h-33v28h-41v-61h141v33zM826.994 277.007h-685v-6h685v6zM727.994 192.007c0 10 -3.83301 18.833 -11.5 26.5s-16.167 11.5 -25.5 11.5
c-4.66699 0 -9.66699 -1.66699 -15 -5s-8 -9 -8 -17c0 -10.667 3.83301 -19.667 11.5 -27s16.167 -11 25.5 -11c4.66699 0 9.66699 1.66699 15 5s8 9 8 17zM202.994 217.007c-2 3.33301 -4.1709 6.33398 -6.50391 9.00098s-6.16602 4 -11.499 4
c-10 0 -14.667 -7.66699 -14 -23c-2 6.66699 -4.66699 12.167 -8 16.5s-7.66602 6.5 -12.999 6.5c-3.33301 0 -6.16602 -1 -8.49902 -3s-3.5 -5 -3.5 -9l3 -1c0 4 2.66699 6 8 6c6.66699 0 11.834 -3.5 15.501 -10.5s6.5 -14.5 8.5 -22.5c2 -7.33301 1.66699 -12 -1 -14
c-1.33301 -0.666992 -3 -1 -5 -1l1 -4h28l-1 4h-4c-2.66699 1.33301 -4.66699 4.33301 -6 9c-3.33301 11.333 -5 19.666 -5 24.999c0 8.66699 3 13 9 13c3.33301 0 5.83301 -0.833008 7.5 -2.5l4.5 -4.5zM821.99 174.008c-1.33301 0 -2.66602 0.333008 -3.99902 1
c-3.33301 1.33301 -5.33301 3.66602 -6 6.99902l-7 35c-0.666992 4 0.333008 6.33301 3 7c1.33301 0.666992 2.66602 1 3.99902 1l-1 3h-45c0.666992 -1.33301 0.666992 -4.66602 0 -9.99902v-7h4c0 2.66699 0.333008 5 1 7c2.66699 4 6.66699 6 12 6h4
c3.33301 0 5.33301 -2 6 -6l3 -16h-4c-4 0 -7 1.66699 -9 5c-1.33301 0.666992 -2.33301 2 -3 4h-3l5 -23h3c0 2 0.333008 4 1 6c1.33301 3.33301 3.66602 5 6.99902 5h4l3 -17c0.666992 -4 -0.333008 -6.33301 -3 -7c-1.33301 -0.666992 -2.66602 -1 -3.99902 -1l1 -3h29z
M619.99 228.008h-28.999l1 -3c1.33301 0 2.66602 -0.333008 3.99902 -1c3.33301 -1.33301 5.33301 -4 6 -8l5 -21c1.33301 -6.66699 1.66602 -11.667 0.999023 -15s-4.66699 -5 -12 -5c-5.33301 0 -9.66602 2.16699 -12.999 6.5s-5.66602 9.5 -6.99902 15.5l-4 19
c-0.666992 4.66699 0.333008 7.66699 3 9h4v3h-24l1 -3c2 0 3.66699 -0.333008 5 -1c3.33301 -1.33301 5.33301 -4 6 -8l4 -19c1.33301 -5.33301 4 -11.166 8 -17.499s10.667 -9.5 20 -9.5c11.333 0 17.666 2.66699 18.999 8s1.33301 10.666 0 15.999l-5 22
c-1.33301 4.66699 -0.333008 7.66699 3 9h5zM521.991 174.008c-1.33301 0 -2.33301 0.333008 -3 1c-2.66699 2 -4.66699 5 -6 9l-7 32c-0.666992 4 0.333008 6.66699 3 8c1.33301 0.666992 3 1 5 1l-1 3h-14l-29 -42l-5 30c-0.666992 4 0.333008 6.66699 3 8
c1.33301 0.666992 2.66602 1 3.99902 1l-1 3h-21l1 -3c1.33301 0 2.66602 -0.333008 3.99902 -1c2.66699 -2 4.33398 -4.66699 5.00098 -8l8 -45l3 -1l30 44l6 -30c0.666992 -4.66699 0 -7.66699 -2 -9c-1.33301 -0.666992 -2.66602 -1 -3.99902 -1l1 -3h21z
M412.991 175.008h-4c-2.66699 1.33301 -4.66699 4.33301 -6 9l-8 31c-2 6 0.666992 9.33301 8 10l-1 3h-30c-6 0 -11.667 -1.83301 -17 -5.5s-8 -9.16699 -8 -16.5c0 -10.667 3.66699 -19.167 11 -25.5s15.333 -9.5 24 -9.5h32zM305.991 174.008
c-1.33301 0 -2.66699 0.334961 -4 1.00195c-3.33301 1.33301 -5.33301 3.66602 -6 6.99902l-7 35c-0.666992 4 0.333008 6.33301 3 7c1.33301 0.666992 2.66602 1 3.99902 1l-1 3h-27c-13.333 0 -20 -5 -20 -15c0 -4 1.83301 -7.33301 5.5 -10
s8.16699 -4.33398 13.5 -5.00098l-9 -16c-2 -4 -5 -6.33301 -9 -7c-1.33301 -0.666992 -3 -1 -5 -1l1 -3h19l12 23c1.33301 2 3 3 5 3l3 -15c0.666992 -4 -0.333008 -6.33301 -3 -7c-1.33301 -0.666992 -2.66602 -1 -3.99902 -1l1 -3h29zM826.99 133.01h-685v-6h685v6z
M693.99 48.0098c-1.33301 0 -2.33301 0.333008 -3 1c-2 1.33301 -3 2.66602 -3 3.99902v20c0 1.33301 1 2.66602 3 3.99902c0.666992 0.666992 1.66699 1.33398 3 2.00098v2h-10l-24 -26v18c0 2 1 3.66699 3 5c0.666992 0.666992 1.66699 1 3 1v2h-15v-2
c1.33301 0 2.33301 -0.333008 3 -1c2 -1.33301 3 -3 3 -5v-28h3l25 28v-20c0 -1.33301 -0.666992 -2.66602 -2 -3.99902c-1.33301 -0.666992 -2.33301 -1 -3 -1v-2h14v2zM632.99 48.0098l-1.99805 -0.00292969c-2 0.666992 -3 2.33398 -3 5.00098v21
c0 2.66699 1 4.33398 3 5.00098h2v2h-29l-2 -10l2 -1l2 4c2 2.66699 4.33301 4 7 4h4c2.66699 0 4 -1 4 -3v-10h-4c-2.66699 0 -4.33398 1 -5.00098 3c-0.666992 0.666992 -1 1.33398 -1 2.00098h-2v-13h2c0 1.33301 0.333008 2.33301 1 3c0.666992 2 2.33398 3 5.00098 3h4
v-11c0 -2 -1.33301 -3 -4 -3h-4c-2.66699 0 -5.33398 1.66699 -8.00098 5c-0.666992 0.666992 -1.33398 2 -2.00098 4l-2 -1l2 -11h30v2zM567.992 81.0068l-0.00585938 -2.00098c0.666992 0 1.33398 -0.333008 2.00098 -1c0.666992 -1.33301 0.666992 -2.66602 0 -3.99902
l-9 -19l-5 10l4 8c0.666992 2 2 3.66699 4 5c0.666992 0 1.33398 0.333008 2.00098 1v2h-26l1 -2c0.666992 0 1.33398 -0.333008 2.00098 -1c2 -0.666992 3.66699 -2.33398 5 -5.00098l3 -5l-7 -13l-8 18c-0.666992 2 -0.666992 3.66699 0 5
c0.666992 0.666992 1.33398 1 2.00098 1v2h-13v-2c0.666992 0 1.33398 -0.333008 2.00098 -1c2 -1.33301 3.33301 -3 4 -5l13 -27h1c0.666992 -0.666992 1 -0.666992 1 0l8 16l9 -16h1l12 27c1.33301 2.66699 3 4.33398 5 5.00098c0.666992 0.666992 1.33398 1 2.00098 1v2
h-15zM479.986 81.0059h-15.002v-2c0.666992 0 1.33398 -0.333008 2.00098 -1s0.333984 -2 -0.999023 -4l-6 -9l-6 9c-1.33301 2 -1.33301 3.33301 0 4c0.666992 0.666992 1.66699 1 3 1v2h-15v-2c0.666992 0 1.66699 -0.333008 3 -1c2 -0.666992 3.66699 -2 5 -4l8 -12v-8
c0 -2.66699 -0.666992 -4.33398 -2 -5.00098s-2.33301 -1 -3 -1v-2h17v2c-0.666992 0 -1.33398 0.333008 -2.00098 1c-2 0.666992 -3 2.33398 -3 5.00098v8l8 12c1.33301 2 3 3.33301 5 4c0.666992 0.666992 1.33398 1 2.00098 1v2zM424.984 64.0059
c0 5.33301 -1.66699 9.66602 -5 12.999s-8.33301 5 -15 5s-11.667 -1.66699 -15 -5s-5 -7.66602 -5 -12.999s1.66699 -9.83301 5 -13.5s8.33301 -5.5 15 -5.5s11.667 1.83301 15 5.5s5 8.16699 5 13.5zM363.984 48.0059c-0.666992 0 -1.33398 0.332031 -2.00098 0.999023
c-2 0.666992 -3 2 -3 4v20c0 2.66699 1 4.33398 3 5.00098c0.666992 0.666992 1.33398 1 2.00098 1v2h-18c-8.66699 0 -13 -3 -13 -9c0 -3.33301 3 -6.33301 9 -9l-7 -10c-1.33301 -2 -3 -3.33301 -5 -4c-1.33301 -0.666992 -2.33301 -1 -3 -1v-2h11l7 12
c2 2.66699 4.33301 4 7 4v-9c0 -2 -0.666992 -3.33301 -2 -4s-2.33301 -1 -3 -1v-2h17v2zM308.984 48.0049c-1.33301 0 -2.33496 0.334961 -3.00195 1.00195c-2 1.33301 -3 3 -3 5v20c0 2 1 3.33301 3 4c0.666992 0.666992 1.66699 1 3 1v2h-18v-2
c1.33301 0 2.33301 -0.333008 3 -1c2 -0.666992 3 -2 3 -4v-9c-1.33301 0 -2.66602 0.666992 -3.99902 2l-8 8c-1.33301 1.33301 -1.66602 2.33301 -0.999023 3s1.33398 1 2.00098 1v2h-14v-2c0.666992 0 1.66699 -0.333008 3 -1c2 -0.666992 3.66699 -1.66699 5 -3l10 -9
l-13 -13c-0.666992 -0.666992 -2 -1.66699 -4 -3c-1.33301 -0.666992 -2.33301 -1.33398 -3 -2.00098v-2h17v2c-1.33301 0 -2 0.333008 -2 1c-1.33301 0.666992 -1.33301 2 0 4l8 8c1.33301 1.33301 2.66602 2 3.99902 2v-9c0 -2.66699 -1 -4.33398 -3 -5.00098
c-0.666992 -0.666992 -1.66699 -1 -3 -1v-2h18v2zM605.982 -82.9932c0 5.33301 -3.66699 7.66699 -11 7v-13c7.33301 0 11 2 11 6zM524.982 -81.9922c0 5.33301 -3.66699 7.33301 -11 6v-12c7.33301 -0.666992 11 1.33301 11 6zM393.982 -82.9922
c0 5.33301 -3.66699 7.66699 -11 7v-13c7.33301 0 11 2 11 6zM558.982 -79.9912l-5 -12h10zM799.982 -87.9912c0 8.66699 -3.66699 13 -11 13s-11 -4 -11 -12c0 -8.66699 3.66699 -13 11 -13s11 4 11 12zM440.982 -87.9912c0 8.66699 -3.66699 13 -11 13s-11 -4 -11 -12
c0 -8.66699 3.66699 -13 11 -13s11 4 11 12zM170.982 548.009c-5.33301 0 -9.16699 1.66797 -11.5 5.00098s-3.5 6.66602 -3.5 9.99902c0 6 2.66699 9 8 9s8.33301 -1.66699 9 -5l3 -19h-5zM565.981 553.01c-2 -2.66699 -4.33203 -4 -6.99902 -4s-4 0.666992 -4 2
c0 2 1.33301 3 4 3c3.33301 0 5.66602 -0.333008 6.99902 -1zM271.982 553.01c-2 -2.66699 -4.33203 -4 -6.99902 -4s-4 0.666992 -4 2c0 2 1.33301 3 4 3c3.33301 0 5.66602 -0.333008 6.99902 -1zM683.983 535.01c0 -8.66699 -3.66699 -12.999 -11 -12.999
c-6 0 -11.667 3.83301 -17 11.5s-8 16.5 -8 26.5c0 9.33301 3.66699 14 11 14c6 0 11.667 -3.83301 17 -11.5s8 -16.834 8 -27.501zM380.983 384.011c-8.66699 0 -13 3.66699 -13 11s4.33301 11 13 11h11v-22h-11zM274.983 200.011
c-5.33301 0 -9.16699 1.66797 -11.5 5.00098s-3.5 6.66602 -3.5 9.99902c0 6 2.66699 9 8 9s8.33301 -1.66699 9 -5l3 -19h-5zM715.982 187.012c0 -8.66699 -3.66699 -12.999 -11 -12.999c-6 0 -11.667 3.83301 -17 11.5s-8 16.5 -8 26.5c0 9.33301 3.66699 14 11 14
c6 0 11.667 -3.83301 17 -11.5s8 -16.834 8 -27.501zM392.982 182.013c0 -4.66699 -1.33203 -7.00098 -3.99902 -7.00098h-5c-7.33301 0 -13.5 3.33301 -18.5 10s-7.5 14 -7.5 22c0 11.333 4.66699 17 14 17h6c2 -0.666992 3.16699 -1.16699 3.5 -1.5
s1.16602 -2.16602 2.49902 -5.49902zM552.983 79.0117c3.33301 0 3.33301 -3 0 -9c-3.33301 6 -3.33301 9 0 9zM351.983 64.0117h-3c-5.33301 0 -8 2.66699 -8 8c0 4 2.33301 6 7 6c2.66699 0 4 -1.33301 4 -4v-10zM416.983 64.0117
c0 -4.66699 -0.832031 -8.66699 -2.49902 -12s-4.83398 -5 -9.50098 -5c-4 0 -7 1.66699 -9 5s-3 7.33301 -3 12c0 10.667 4 16 12 16s12 -5.33301 12 -16z" />
    </font>
</defs>
</svg>
