<?xml version="1.0" standalone="no"?>
<!DOCTYPE svg PUBLIC "-//W3C//DTD SVG 1.1//EN" "http://www.w3.org/Graphics/SVG/1.1/DTD/svg11.dtd" >
<svg>
<metadata>
Created by FontForge 20090914 at Tue Mar 24 15:09:06 2020
 By www-data
HTF Gotham  Copr. 2000 The Hoefler Type Foundry, Inc. Info: www.typography.com
</metadata>
<defs>
<font id="GothamMedium" horiz-adv-x="500" >
  <font-face 
    font-family="Gotham Medium"
    font-weight="500"
    font-stretch="normal"
    units-per-em="1000"
    panose-1="2 0 6 3 3 0 0 2 0 4"
    ascent="800"
    descent="-200"
    x-height="527.999"
    cap-height="700"
    bbox="-70 -165.028 1180 922"
    underline-thickness="20"
    underline-position="-113"
    unicode-range="U+0020-U+FB02"
  />
<missing-glyph 
 />
    <glyph glyph-name="fi" unicode="fi" horiz-adv-x="662" 
d="M459 528h121v-528h-121v528zM103 424l-66.998 -0.000976562v101h67v38c0 58.667 14.333 102.334 43 131.001c28 28 67.667 42 119 42c21.333 0 39.666 -1.33301 54.999 -4s29.666 -6 42.999 -10v-102c-12 4 -23.5 7.16699 -34.5 9.5s-23.167 3.5 -36.5 3.5
c-46.667 0 -70 -26.667 -70 -80v-29h140v-100h-138v-424h-121v424zM454.002 723.999h130v-115h-130v115z" />
    <glyph glyph-name="fl" unicode="fl" horiz-adv-x="662" 
d="M459 730h121v-730h-121v730zM103 424l-66.998 -0.000976562v101h67v38c0 58.667 14.333 102.334 43 131.001c28 28 67.667 42 119 42c21.333 0 39.666 -1.33301 54.999 -4s29.666 -6 42.999 -10v-102c-12 4 -23.5 7.16699 -34.5 9.5s-23.167 3.5 -36.5 3.5
c-46.667 0 -70 -26.667 -70 -80v-29h140v-100h-138v-424h-121v424z" />
    <glyph glyph-name=".notdef" 
 />
    <glyph glyph-name="space" unicode=" " horiz-adv-x="300" 
 />
    <glyph glyph-name="exclam" unicode="!" horiz-adv-x="302" 
d="M85 137h133v-137h-133v137zM80 665v35h142v-35l-37 -444h-67z" />
    <glyph glyph-name="quotedbl" unicode="&#x22;" horiz-adv-x="487" 
d="M83 700h137v-5l-97 -294h-63zM303 700h137v-5l-98 -294h-63z" />
    <glyph glyph-name="numbersign" unicode="#" horiz-adv-x="700" 
d="M417 265l30 174h-164l-30 -174h164zM129 161h-90v104h108l29 174h-100v104h118l27 157h107l-27 -157h164l26 157h107l-27 -157h89v-104h-107l-29 -174h100v-104h-118l-28 -161h-107l28 161h-164l-27 -161h-107z" />
    <glyph glyph-name="dollar" unicode="$" horiz-adv-x="642" 
d="M368 102c32 2.66699 56.501 11.5 73.501 26.5s25.5 34.5 25.5 58.5v2c0 22 -6.83301 40.333 -20.5 55s-39.834 27.667 -78.501 39v-181zM289.001 599c-32 -2.66699 -56.001 -11.668 -72.001 -27.001s-24 -34 -24 -56v-2c0 -20.667 6.33301 -38.167 19 -52.5
s38.334 -27.166 77.001 -38.499v176zM285 1.99902c-44 5.33301 -85.835 16.3301 -125.502 32.9971s-76.5 38.667 -110.5 66l64 91c28.667 -23.333 57 -42.166 85 -56.499s58.333 -24.166 91 -29.499v196c-73.333 18.667 -127.333 43.5 -162 74.5s-52 74.5 -52 130.5v2
c0 26.667 5 51.167 15 73.5s24.333 41.833 43 58.5s40.834 30 66.501 40s54.167 16.333 85.5 19v58h87v-60c36.667 -4.66699 70.167 -13.334 100.5 -26.001s59.5 -29.334 87.5 -50.001l-56 -94c-43.333 32.667 -88.666 54 -135.999 64v-190
c76 -19.333 131.167 -45.166 165.5 -77.499s51.5 -75.166 51.5 -128.499v-2c0 -27.333 -5.16699 -52.166 -15.5 -74.499s-24.833 -41.833 -43.5 -58.5s-41 -30.167 -67 -40.5s-55 -16.833 -87 -19.5v-99h-87v100z" />
    <glyph glyph-name="percent" unicode="%" horiz-adv-x="849" 
d="M637 69c23.333 0 41.666 9.83398 54.999 29.501s20 43.167 20 70.5v2c0 28 -7.16699 52 -21.5 72s-32.833 30 -55.5 30c-23.333 0 -41.666 -9.83301 -54.999 -29.5s-20 -43.167 -20 -70.5v-2c0 -28.667 7.16699 -52.834 21.5 -72.501s32.833 -29.5 55.5 -29.5z
M214 427.001c23.333 0 41.666 9.83398 54.999 29.501s20 43.167 20 70.5v2c0 28 -7.16699 52 -21.5 72s-32.833 30 -55.5 30c-23.333 0 -41.666 -9.83301 -54.999 -29.5s-20 -43.167 -20 -70.5v-2c0 -28.667 7.16699 -52.834 21.5 -72.501s32.833 -29.5 55.5 -29.5z
M635 -7.99805c-24.667 0 -47 4.66699 -67 14s-37.167 22.166 -51.5 38.499s-25.5 35.166 -33.5 56.499s-12 44 -12 68v2c0 24 4 46.833 12 68.5s19.333 40.667 34 57s32.167 29.333 52.5 39s42.833 14.5 67.5 14.5s47 -4.66699 67 -14s37.167 -22.166 51.5 -38.499
s25.5 -35.166 33.5 -56.499s12 -44 12 -68v-2c0 -24 -4 -46.833 -12 -68.5s-19.333 -40.667 -34 -57s-32.167 -29.333 -52.5 -39s-42.833 -14.5 -67.5 -14.5zM631 700.002h99l-512 -700h-99zM212 350.002c-24.667 0 -47 4.66699 -67 14s-37.167 22.166 -51.5 38.499
s-25.5 35.166 -33.5 56.499s-12 44 -12 68v2c0 24 4 46.833 12 68.5s19.333 40.667 34 57s32.167 29.333 52.5 39s42.833 14.5 67.5 14.5s47 -4.66699 67 -14s37.167 -22.166 51.5 -38.499s25.5 -35.166 33.5 -56.499s12 -44 12 -68v-2c0 -24 -4 -46.833 -12 -68.5
s-19.333 -40.667 -34 -57s-32.167 -29.333 -52.5 -39s-42.833 -14.5 -67.5 -14.5z" />
    <glyph glyph-name="ampersand" unicode="&#x26;" horiz-adv-x="696" 
d="M280 92c24 0 47.001 5.33301 69.001 16s43 25.667 63 45l-156 159c-32.667 -14 -56.334 -31.167 -71.001 -51.5s-22 -41.833 -22 -64.5v-2c0 -30 11 -54.5 33 -73.5s50 -28.5 84 -28.5zM298.001 425c36 13.333 63.333 28.499 82 45.499s28 38.167 28 63.5v2
c0 23.333 -7.5 42.333 -22.5 57s-34.167 22 -57.5 22c-25.333 0 -45.5 -7.83301 -60.5 -23.5s-22.5 -35.834 -22.5 -60.501v-2c0 -17.333 4 -33.666 12 -48.999s21.667 -33.666 41 -54.999zM482.001 80.999c-30 -28 -62.665 -50.165 -97.998 -66.498
s-74.333 -24.5 -117 -24.5c-32.667 0 -62.834 4.66699 -90.501 14s-51.667 22.833 -72 40.5s-36.333 38.834 -48 63.501s-17.5 52 -17.5 82v2c0 45.333 12.833 84.166 38.5 116.499s62.5 58.833 110.5 79.5c-20 25.333 -34.667 49.666 -44 72.999s-14 47.666 -14 72.999v2
c0 23.333 4.66699 45.666 14 66.999s22.666 40 39.999 56s38.333 28.833 63 38.5s52.667 14.5 84 14.5c28 0 53.333 -4.33301 76 -13s42.167 -20.667 58.5 -36s29 -33.333 38 -54s13.5 -42.667 13.5 -66v-2c0 -46 -14 -83.5 -42 -112.5s-65.333 -52.167 -112 -69.5l120 -122
c13.333 20 26.333 41.333 39 64s24.667 46.334 36 71.001l93 -49c-14 -28 -28.833 -55.5 -44.5 -82.5s-32.5 -52.833 -50.5 -77.5l110 -112l-91 -65z" />
    <glyph glyph-name="quotesingle" unicode="'" horiz-adv-x="269" 
d="M83 700h139v-5l-98 -294h-64z" />
    <glyph glyph-name="parenleft" unicode="(" horiz-adv-x="440" 
d="M340 -141c-91.333 50 -160.336 109.999 -207.003 179.999s-70 152.667 -70 248s23.333 178 70 248s115.667 130 207 180l53 -81c-35.333 -23.333 -66.166 -47.666 -92.499 -72.999s-48.166 -52 -65.499 -80s-30.166 -58 -38.499 -90s-12.5 -66.667 -12.5 -104
c0 -74.667 17 -139.5 51 -194.5s86.667 -105.833 158 -152.5z" />
    <glyph glyph-name="parenright" unicode=")" horiz-adv-x="440" 
d="M48 -60c35.333 23.333 66.1689 47.666 92.502 72.999s48.166 52 65.499 80s30.166 58 38.499 90s12.5 66.667 12.5 104c0 74.667 -17.167 139.334 -51.5 194.001s-86.833 105.667 -157.5 153l53 81c90.667 -50 159.5 -110.167 206.5 -180.5s70.5 -152.833 70.5 -247.5
s-23.5 -177.167 -70.5 -247.5s-115.833 -130.5 -206.5 -180.5z" />
    <glyph glyph-name="asterisk" unicode="*" horiz-adv-x="430" 
d="M194 504l-100 -73l-36 61l114 50l-114 50l36 61l100 -73l-14 122h70l-14 -122l100 73l36 -61l-114 -50l114 -50l-36 -61l-100 73l14 -122h-70z" />
    <glyph glyph-name="plus" unicode="+" horiz-adv-x="640" 
d="M263 297h-192v110h192v191h114v-191h192v-110h-192v-191h-114v191z" />
    <glyph glyph-name="comma" unicode="," horiz-adv-x="269" 
d="M34 -94c61.333 12 89.667 43.333 85 94h-51v137h133v-116c0 -56 -13 -96.667 -39 -122s-64.333 -40 -115 -44z" />
    <glyph glyph-name="hyphen" unicode="-" horiz-adv-x="408" 
d="M56 366h296v-119h-296v119z" />
    <glyph glyph-name="hyphen" unicode="&#xad;" horiz-adv-x="408" 
d="M56 366h296v-119h-296v119z" />
    <glyph glyph-name="period" unicode="." horiz-adv-x="269" 
d="M68 137h133v-137h-133v137z" />
    <glyph glyph-name="slash" unicode="/" horiz-adv-x="521" 
d="M427 798h105l-452 -926h-105z" />
    <glyph glyph-name="zero" unicode="0" horiz-adv-x="724" 
d="M363 99c27.333 0 51.832 6.5 73.499 19.5s40.167 30.667 55.5 53s27.166 48.666 35.499 78.999s12.5 62.833 12.5 97.5v2c0 34.667 -4.33301 67.167 -13 97.5s-20.667 56.833 -36 79.5s-34.166 40.667 -56.499 54s-46.833 20 -73.5 20
c-27.333 0 -51.833 -6.5 -73.5 -19.5s-40.167 -30.667 -55.5 -53s-27.166 -48.666 -35.499 -78.999s-12.5 -62.833 -12.5 -97.5v-2c0 -34.667 4.16699 -67.167 12.5 -97.5s20.333 -56.833 36 -79.5s34.5 -40.667 56.5 -54s46.667 -20 74 -20zM360.999 -12
c-46 0 -87.666 9.33301 -124.999 28s-69.333 44.334 -96 77.001s-47.167 70.834 -61.5 114.501s-21.5 90.5 -21.5 140.5v2c0 50 7.33301 97 22 141s35.334 82.333 62.001 115s58.834 58.5 96.501 77.5s79.5 28.5 125.5 28.5s87.667 -9.33301 125 -28
s69.166 -44.334 95.499 -77.001s46.833 -70.834 61.5 -114.501s22 -90.5 22 -140.5v-2c0 -50 -7.33301 -97 -22 -141s-35.334 -82.333 -62.001 -115s-58.834 -58.5 -96.501 -77.5s-79.5 -28.5 -125.5 -28.5z" />
    <glyph glyph-name="one" unicode="1" horiz-adv-x="396" 
d="M178 580l-126 -35l-26 100l188 60h86v-705h-122v580z" />
    <glyph glyph-name="two" unicode="2" horiz-adv-x="613" 
d="M49 97l241.004 205c24 20 44.333 38.167 61 54.5s30.167 31.833 40.5 46.5s17.833 29 22.5 43s7 29 7 45c0 34.667 -10.833 61.5 -32.5 80.5s-48.5 28.5 -80.5 28.5s-60.167 -8.66699 -84.5 -26s-50.166 -43.666 -77.499 -78.999l-87 68
c16.667 23.333 33.667 44.166 51 62.499s36.166 33.666 56.499 45.999s42.666 21.833 66.999 28.5s52.166 10 83.499 10c34 0 65.167 -5 93.5 -15s52.666 -24.167 72.999 -42.5s36.166 -40.333 47.499 -66s17 -54.167 17 -85.5v-2c0 -27.333 -3.66699 -52.166 -11 -74.499
s-18.5 -43.833 -33.5 -64.5s-34 -41.5 -57 -62.5s-49.833 -44.167 -80.5 -69.5l-144 -120h333v-108h-506v97z" />
    <glyph glyph-name="three" unicode="3" horiz-adv-x="618" 
d="M311 -12c-61.333 0 -113.835 11.4971 -157.502 34.4971s-80.5 52.5 -110.5 88.5l86 80c25.333 -30 52.5 -52.833 81.5 -68.5s63.167 -23.5 102.5 -23.5c34.667 0 63.5 9.66699 86.5 29s34.5 45 34.5 77v2c0 34.667 -14.5 61.334 -43.5 80.001s-68.167 28 -117.5 28h-57
l-20 77l189 201h-303v107h463v-92l-195 -200c26.667 -3.33301 52.334 -9.5 77.001 -18.5s46.5 -21.167 65.5 -36.5s34.333 -34.666 46 -57.999s17.5 -51.333 17.5 -84v-2c0 -32 -6 -61.667 -18 -89s-28.667 -50.666 -50 -69.999s-47.166 -34.5 -77.499 -45.5
s-63.5 -16.5 -99.5 -16.5z" />
    <glyph glyph-name="four" unicode="4" horiz-adv-x="681" 
d="M412 258v277l-230 -277h230zM412 157h-353l-23 88l389 460h105v-447h100v-101h-100v-157h-118v157z" />
    <glyph glyph-name="five" unicode="5" horiz-adv-x="622" 
d="M304 -12c-54 0 -102.004 9.83398 -144.004 29.501s-79.667 45.5 -113 77.5l76 89c28 -26 56.833 -46.5 86.5 -61.5s60.834 -22.5 93.501 -22.5c42 0 75.667 11 101 33s38 51.333 38 88v2c0 36 -13.5 64.333 -40.5 85s-61.833 31 -104.5 31
c-25.333 0 -48.666 -3 -69.999 -9s-41 -13.333 -59 -22l-74 49l20 343h418v-109h-312l-11 -164c16.667 6 33.5 10.833 50.5 14.5s37.167 5.5 60.5 5.5c34 0 65.833 -4.5 95.5 -13.5s55.334 -22.667 77.001 -41s38.834 -41.333 51.501 -69s19 -59.834 19 -96.501v-2
c0 -36 -6.16699 -68.5 -18.5 -97.5s-29.833 -53.833 -52.5 -74.5s-50 -36.667 -82 -48s-67.333 -17 -106 -17z" />
    <glyph glyph-name="six" unicode="6" horiz-adv-x="656" 
d="M334 94c22 0 41.666 3.16504 58.999 9.49805s32 15.333 44 27s21.167 25.167 27.5 40.5s9.5 32 9.5 50v2c0 35.333 -12.833 64.5 -38.5 87.5s-60.5 34.5 -104.5 34.5c-22 0 -41.667 -3.33301 -59 -10s-32.166 -15.5 -44.499 -26.5s-21.833 -24 -28.5 -39
s-10 -30.833 -10 -47.5v-2c0 -18 3.5 -34.667 10.5 -50s16.667 -28.666 29 -39.999s27.5 -20.166 45.5 -26.499s38 -9.5 60 -9.5zM336.999 -12.002c-43.333 0 -80.835 6.33887 -112.502 19.0059s-59.167 30.667 -82.5 54c-13.333 13.333 -25.166 28.166 -35.499 44.499
s-19.166 35.166 -26.499 56.499s-13 45.666 -17 72.999s-6 58.666 -6 93.999v2c0 53.333 6.33301 103.166 19 149.499s31.5 86.666 56.5 120.999s56.333 61.333 94 81s81.167 29.5 130.5 29.5c45.333 0 84.666 -6.83301 117.999 -20.5s65.333 -32.834 96 -57.501l-66 -95
c-24.667 19.333 -48.5 34.333 -71.5 45s-49.833 16 -80.5 16c-26 0 -49.167 -5.5 -69.5 -16.5s-37.5 -26.5 -51.5 -46.5s-25 -43.5 -33 -70.5s-12.667 -56.5 -14 -88.5c9.33301 8.66699 19.333 17.334 30 26.001s22.834 16.167 36.501 22.5s28.667 11.5 45 15.5
s34.833 6 55.5 6c34 0 65.833 -4.83301 95.5 -14.5s55.667 -24 78 -43s39.833 -42.167 52.5 -69.5s19 -58.333 19 -93v-2c0 -34.667 -6.66699 -66.667 -20 -96s-31.666 -54.5 -54.999 -75.5s-50.833 -37.333 -82.5 -49s-65.834 -17.5 -102.501 -17.5z" />
    <glyph glyph-name="seven" unicode="7" horiz-adv-x="609" 
d="M420 592h-352v108h492v-93l-316 -607h-138z" />
    <glyph glyph-name="eight" unicode="8" horiz-adv-x="630" 
d="M315 93c46 0 82 10.1689 108 30.502s39 45.166 39 74.499v2c0 16 -3.83301 30.5 -11.5 43.5s-18 24.167 -31 33.5s-28.5 16.5 -46.5 21.5s-37.333 7.5 -58 7.5s-40 -2.5 -58 -7.5s-33.5 -12.167 -46.5 -21.5s-23.333 -20.5 -31 -33.5s-11.5 -27.5 -11.5 -43.5v-2
c0 -28.667 13 -53.334 39 -74.001s62 -31 108 -31zM315 404.002c36 0 65.833 9.66699 89.5 29s35.5 44 35.5 74v2c0 27.333 -11.333 50.5 -34 69.5s-53 28.5 -91 28.5s-68.333 -9.5 -91 -28.5s-34 -41.833 -34 -68.5v-2c0 -30.667 11.833 -55.667 35.5 -75
s53.5 -29 89.5 -29zM315 -9.99805c-38 0 -73.3311 4.83301 -105.998 14.5s-61 23.167 -85 40.5s-42.667 38.333 -56 63s-20 52 -20 82v2c0 42.667 11 77.667 33 105s53 49.333 93 66c-30 15.333 -54.5 35.333 -73.5 60s-28.5 56.667 -28.5 96v2
c0 26.667 6.16699 51.5 18.5 74.5s29.166 43 50.499 60s46.833 30.333 76.5 40s62.167 14.5 97.5 14.5c34.667 0 67 -4.83301 97 -14.5s55.667 -22.834 77 -39.501s38.166 -36.667 50.499 -60s18.5 -48.333 18.5 -75v-2c0 -39.333 -9.5 -71.333 -28.5 -96
s-43.5 -44.667 -73.5 -60c38 -17.333 68.5 -39.166 91.5 -65.499s34.5 -60.5 34.5 -102.5v-2c0 -31.333 -6.66699 -59.5 -20 -84.5s-32 -46.333 -56 -64s-52.333 -31.167 -85 -40.5s-68 -14 -106 -14z" />
    <glyph glyph-name="nine" unicode="9" horiz-adv-x="656" 
d="M325 349c22 0 41.834 3.33105 59.501 9.99805s32.667 15.834 45 27.501s21.666 25 27.999 40s9.5 31.167 9.5 48.5v2c0 36.667 -13.167 67.334 -39.5 92.001s-61.833 37 -106.5 37c-22 0 -41.5 -3.33301 -58.5 -10s-31.5 -16 -43.5 -28s-21.167 -25.833 -27.5 -41.5
s-9.5 -32.5 -9.5 -50.5v-2c0 -36.667 12.833 -66.667 38.5 -90s60.5 -35 104.5 -35zM299.001 -12.002c-48.667 0 -90.666 7.83398 -125.999 23.501s-68 35.834 -98 60.501l67 94c26.667 -22.667 52.5 -39.334 77.5 -50.001s52.5 -16 82.5 -16c26 0 49.167 5.33301 69.5 16
s37.666 25.834 51.999 45.501s25.5 43 33.5 70s12.667 56.5 14 88.5c-17.333 -21.333 -39.5 -39 -66.5 -53s-59.5 -21 -97.5 -21c-37.333 0 -71.166 5.16699 -101.499 15.5s-56.333 25.166 -78 44.499s-38.5 42.666 -50.5 69.999s-18 58 -18 92v2
c0 34 6.33301 65.833 19 95.5s30.5 55.334 53.5 77.001s50.5 38.667 82.5 51s67.333 18.5 106 18.5c44 0 81.167 -6.16699 111.5 -18.5s57.833 -30.833 82.5 -55.5c26 -26 46.667 -59.833 62 -101.5s23 -96.834 23 -165.501v-2c0 -56 -6.83301 -107.5 -20.5 -154.5
s-33.334 -87.167 -59.001 -120.5s-57.167 -59.333 -94.5 -78s-79.333 -28 -126 -28z" />
    <glyph glyph-name="colon" unicode=":" horiz-adv-x="279" 
d="M73 137h133v-137h-133v137zM73 528h133v-137h-133v137z" />
    <glyph glyph-name="semicolon" unicode=";" horiz-adv-x="279" 
d="M39 -94c61.333 12 89.667 43.333 85 94h-51v137h133v-116c0 -56 -13 -96.667 -39 -122s-64.333 -40 -115 -44zM73.001 528h133v-137h-133v137z" />
    <glyph glyph-name="semicolon" unicode="&#x37e;" horiz-adv-x="279" 
d="M39 -94c61.333 12 89.667 43.333 85 94h-51v137h133v-116c0 -56 -13 -96.667 -39 -122s-64.333 -40 -115 -44zM73.001 528h133v-137h-133v137z" />
    <glyph glyph-name="less" unicode="&#x3c;" horiz-adv-x="640" 
d="M70 298v108l477 221v-115l-357 -159l357 -160v-116z" />
    <glyph glyph-name="equal" unicode="=" horiz-adv-x="640" 
d="M86 283h468v-112h-468v112zM86 533h468v-112h-468v112z" />
    <glyph glyph-name="greater" unicode="&#x3e;" horiz-adv-x="640" 
d="M93 192l357 159l-357 160v116l477 -221v-108l-477 -221v115z" />
    <glyph glyph-name="question" unicode="?" horiz-adv-x="541" 
d="M178 137h134v-137h-134v137zM187 383l5.00098 5.00098c64 2.66699 110.833 13.667 140.5 33s44.5 45.666 44.5 78.999v2c0 28 -10.167 50.833 -30.5 68.5s-48.5 26.5 -84.5 26.5c-32 0 -61.167 -6.83301 -87.5 -20.5s-51.5 -33.167 -75.5 -58.5l-75 80
c29.333 33.333 63.333 60.166 102 80.499s85 30.5 139 30.5c34.667 0 66.5 -4.66699 95.5 -14s53.667 -22.833 74 -40.5s36.166 -39 47.499 -64s17 -53.167 17 -84.5v-2c0 -31.333 -5.33301 -58.666 -16 -81.999s-25 -43 -43 -59s-39.167 -29 -63.5 -39
s-50.5 -17.333 -78.5 -22l-10 -81h-81z" />
    <glyph glyph-name="at" unicode="@" horiz-adv-x="980" 
d="M457 154c18 0 35.332 4.16895 51.999 12.502s31.334 19.666 44.001 33.999s22.834 31 30.501 50s11.5 39.5 11.5 61.5c0 32 -10 58 -30 78s-45 30 -75 30c-18 0 -35.5 -4 -52.5 -12s-31.833 -19 -44.5 -33s-22.834 -30.667 -30.501 -50s-11.5 -40.333 -11.5 -63
c0 -34.667 9.83301 -61.334 29.5 -80.001s45.167 -28 76.5 -28zM498.999 -161.998c-64 0 -123.164 11.4971 -177.497 34.4971s-101.5 54.333 -141.5 94s-71.167 85.834 -93.5 138.501s-33.5 109 -33.5 169s11.333 116.5 34 169.5s53.667 99.333 93 139
s85.666 71.167 138.999 94.5s110.666 35 171.999 35s118.5 -11 171.5 -33s99.167 -51.167 138.5 -87.5s70.166 -78.333 92.499 -126s33.5 -97.5 33.5 -149.5c0 -42 -5.33301 -78.667 -16 -110s-24.834 -57.166 -42.501 -77.499s-38.167 -35.666 -61.5 -45.999
s-48 -15.5 -74 -15.5c-39.333 0 -71 7 -95 21s-41.667 30.333 -53 49c-18 -18.667 -39.5 -35 -64.5 -49s-55.167 -21 -90.5 -21c-25.333 0 -48.833 4.5 -70.5 13.5s-40.834 21.667 -57.501 38s-29.667 36.166 -39 59.499s-14 49.333 -14 78
c0 35.333 6.33301 68.166 19 98.499s29.667 56.833 51 79.5s45.5 40.334 72.5 53.001s55.167 19 84.5 19c36 0 65.167 -7.33301 87.5 -22s40.166 -32 53.499 -52l12 60l97 -15l-44 -252l-3.5 -25c-1 -7.33301 -1.5 -13.333 -1.5 -18c0 -21.333 6.83301 -38.5 20.5 -51.5
s32.834 -19.5 57.501 -19.5c18 0 35 4.33301 51 13s30 21.5 42 38.5s21.5 38.333 28.5 64s10.5 55.5 10.5 89.5c0 46 -10 90.5 -30 133.5s-47.667 81.167 -83 114.5s-77.166 60 -125.499 80s-100.833 30 -157.5 30c-57.333 0 -110.166 -10.5 -158.499 -31.5
s-90.333 -49.667 -126 -86s-63.5 -78.833 -83.5 -127.5s-30 -100.334 -30 -155.001c0 -55.333 10 -107.166 30 -155.499s48 -90.5 84 -126.5s78.833 -64.333 128.5 -85s104.167 -31 163.5 -31c49.333 0 93.333 5.66699 132 17s77 28 115 50l18 -30
c-38.667 -23.333 -79.5 -41.666 -122.5 -54.999s-90.5 -20 -142.5 -20z" />
    <glyph glyph-name="A" unicode="A" horiz-adv-x="790" 
d="M514 278l-121 280l-120 -280h241zM338 705h114l308 -705h-130l-71 169h-331l-72 -169h-126z" />
    <glyph glyph-name="B" unicode="B" horiz-adv-x="722" 
d="M415 109c42 0 75.001 8 99.001 24s36 40 36 72v2c0 30 -11.833 53.167 -35.5 69.5s-59.834 24.5 -108.501 24.5h-195v-192h204zM379.001 405c40 0 72 7.83301 96 23.5s36 39.5 36 71.5v2c0 28 -10.5 49.833 -31.5 65.5s-51.5 23.5 -91.5 23.5h-177v-186h168zM90.001 700
l314 -0.00292969c80.667 0 141.667 -20.667 183 -62c31.333 -31.333 47 -70 47 -116v-2c0 -21.333 -2.83301 -40.166 -8.5 -56.499s-13 -30.666 -22 -42.999s-19.667 -23.166 -32 -32.499s-24.833 -17.333 -37.5 -24c20.667 -7.33301 39.5 -15.833 56.5 -25.5
s31.667 -21.167 44 -34.5s21.833 -29 28.5 -47s10 -39 10 -63v-2c0 -31.333 -6.16699 -59 -18.5 -83s-29.833 -44 -52.5 -60s-50 -28.167 -82 -36.5s-67.333 -12.5 -106 -12.5h-324v700z" />
    <glyph glyph-name="C" unicode="C" horiz-adv-x="738" 
d="M415 -12c-51.333 0 -98.668 9.33301 -142.001 28s-80.833 44.167 -112.5 76.5s-56.5 70.5 -74.5 114.5s-27 91 -27 141v2c0 50 8.83301 96.833 26.5 140.5s42.5 82 74.5 115s70 59 114 78s92.667 28.5 146 28.5c32 0 61.167 -2.66699 87.5 -8s50.5 -12.833 72.5 -22.5
s42.333 -21.167 61 -34.5s36.334 -28 53.001 -44l-79 -91c-28 26 -57.667 47 -89 63s-67 24 -107 24c-33.333 0 -64.166 -6.5 -92.499 -19.5s-52.833 -30.667 -73.5 -53s-36.667 -48.5 -48 -78.5s-17 -62 -17 -96v-2c0 -34 5.66699 -66.167 17 -96.5
s27.333 -56.833 48 -79.5s45.167 -40.5 73.5 -53.5s59.166 -19.5 92.499 -19.5c42.667 0 79.334 8.16699 110.001 24.5s61 38.5 91 66.5l79 -80c-18 -19.333 -36.833 -36.5 -56.5 -51.5s-40.834 -28 -63.501 -39s-47.5 -19.333 -74.5 -25s-56.833 -8.5 -89.5 -8.5z" />
    <glyph glyph-name="D" unicode="D" horiz-adv-x="782" 
d="M351 112c36.667 0 70 5.83301 100 17.5s55.5 28 76.5 49s37.333 46 49 75s17.5 60.5 17.5 94.5v2c0 34 -5.83301 65.667 -17.5 95s-28 54.5 -49 75.5s-46.5 37.5 -76.5 49.5s-63.333 18 -100 18h-138v-476h138zM90 700l261 -0.00195312
c54.667 0 104.834 -8.83301 150.501 -26.5s85 -42.167 118 -73.5s58.5 -68.166 76.5 -110.499s27 -88.166 27 -137.499v-2c0 -49.333 -9 -95.333 -27 -138s-43.5 -79.667 -76.5 -111s-72.333 -56 -118 -74s-95.834 -27 -150.501 -27h-261v700z" />
    <glyph glyph-name="E" unicode="E" horiz-adv-x="670" 
d="M90 700h519v-110h-396v-182h351v-110h-351v-188h401v-110h-524v700z" />
    <glyph glyph-name="F" unicode="F" horiz-adv-x="656" 
d="M90 700h521v-112h-398v-191h353v-112h-353v-285h-123v700z" />
    <glyph glyph-name="G" unicode="G" horiz-adv-x="784" 
d="M422 -12c-54.667 0 -104.333 9.16895 -149 27.502s-82.834 43.666 -114.501 75.999s-56.167 70.333 -73.5 114s-26 91.167 -26 142.5v2c0 48.667 8.83301 95 26.5 139s42.5 82.5 74.5 115.5s70.167 59.167 114.5 78.5s92.833 29 145.5 29
c30.667 0 58.5 -2.16699 83.5 -6.5s48.167 -10.5 69.5 -18.5s41.5 -17.833 60.5 -29.5s37.5 -25.167 55.5 -40.5l-78 -93c-13.333 11.333 -27 21.666 -41 30.999s-28.667 17.166 -44 23.499s-32.166 11.333 -50.499 15s-38.5 5.5 -60.5 5.5
c-32 0 -61.833 -6.66699 -89.5 -20s-51.667 -31.166 -72 -53.499s-36.333 -48.5 -48 -78.5s-17.5 -61.667 -17.5 -95v-2c0 -36 5.66699 -69.333 17 -100s27.5 -57 48.5 -79s46 -39.333 75 -52s61.5 -19 97.5 -19c33.333 0 64.5 4.83301 93.5 14.5s54.167 22.5 75.5 38.5v131
h-179v107h298v-294c-17.333 -14.667 -36.5 -28.667 -57.5 -42s-43.667 -25 -68 -35s-50.5 -17.833 -78.5 -23.5s-57.333 -8.5 -88 -8.5z" />
    <glyph glyph-name="H" unicode="H" horiz-adv-x="760" 
d="M90 700h123v-291h334v291h123v-700h-123v295h-334v-295h-123v700z" />
    <glyph glyph-name="I" unicode="I" horiz-adv-x="317" 
d="M97 700h123v-700h-123v700z" />
    <glyph glyph-name="J" unicode="J" horiz-adv-x="559" 
d="M245 -10c-54 0 -98.999 10.834 -134.999 32.501s-65.667 48.5 -89 80.5l81 83c20.667 -26 41.834 -46.167 63.501 -60.5s47.5 -21.5 77.5 -21.5c33.333 0 60.166 11.167 80.499 33.5s30.5 56.833 30.5 103.5v459h126v-462c0 -42 -5.66699 -78.333 -17 -109
s-27.333 -56.334 -48 -77.001s-45.334 -36.167 -74.001 -46.5s-60.667 -15.5 -96 -15.5z" />
    <glyph glyph-name="K" unicode="K" horiz-adv-x="725" 
d="M90 700h123v-352l333 352h151l-291 -301l304 -399h-149l-239 315l-109 -112v-203h-123v700z" />
    <glyph glyph-name="L" unicode="L" horiz-adv-x="619" 
d="M90 700h123v-588h368v-112h-491v700z" />
    <glyph glyph-name="M" unicode="M" horiz-adv-x="868" 
d="M90 700h131l213 -331l213 331h131v-700h-123v502l-221 -330h-4l-219 328v-500h-121v700z" />
    <glyph glyph-name="N" unicode="N" horiz-adv-x="790" 
d="M90 700h114l375 -484v484h121v-700h-103l-386 498v-498h-121v700z" />
    <glyph glyph-name="O" unicode="O" horiz-adv-x="850" 
d="M426 101c34.667 0 66.5 6.5 95.5 19.5s53.833 30.667 74.5 53s36.834 48.5 48.501 78.5s17.5 62 17.5 96v2c0 34 -5.83301 66.167 -17.5 96.5s-28 56.666 -49 78.999s-46.167 40.166 -75.5 53.499s-61.333 20 -96 20s-66.5 -6.5 -95.5 -19.5s-53.833 -30.667 -74.5 -53
s-36.834 -48.5 -48.501 -78.5s-17.5 -62 -17.5 -96v-2c0 -34 5.83301 -66.167 17.5 -96.5s28 -56.666 49 -78.999s46.167 -40.166 75.5 -53.499s61.333 -20 96 -20zM424 -12c-54 0 -103.333 9.5 -148 28.5s-83 44.833 -115 77.5s-57 70.834 -75 114.501
s-27 90.167 -27 139.5v2c0 49.333 9 95.833 27 139.5s43.333 82 76 115s71.334 59.167 116.001 78.5s94 29 148 29s103.333 -9.5 148 -28.5s83 -44.833 115 -77.5s57 -70.834 75 -114.501s27 -90.167 27 -139.5v-2c0 -49.333 -9 -95.833 -27 -139.5s-43.333 -82 -76 -115
s-71.334 -59.167 -116.001 -78.5s-94 -29 -148 -29z" />
    <glyph glyph-name="P" unicode="P" horiz-adv-x="668" 
d="M356 336c46.667 0 83.5 11.667 110.5 35s40.5 53.333 40.5 90v2c0 41.333 -13.667 72.5 -41 93.5s-64 31.5 -110 31.5h-143v-252h143zM90 700l276 0.000976562c40.667 0 77.5 -5.5 110.5 -16.5s61 -26.833 84 -47.5s40.667 -45.334 53 -74.001s18.5 -60.667 18.5 -96v-2
c0 -39.333 -7.33301 -73.833 -22 -103.5s-34.667 -54.5 -60 -74.5s-55 -35.167 -89 -45.5s-70.333 -15.5 -109 -15.5h-139v-225h-123v700z" />
    <glyph glyph-name="Q" unicode="Q" horiz-adv-x="850" 
d="M426 101c23.333 0 45.001 2.99902 65.001 8.99902s38.333 14.333 55 25l-120 102l79 90l121 -110c24 36.667 36 80.334 36 131.001v2c0 34 -5.83301 66.167 -17.5 96.5s-28 56.666 -49 78.999s-46.167 40.166 -75.5 53.499s-61.333 20 -96 20s-66.5 -6.5 -95.5 -19.5
s-53.833 -30.667 -74.5 -53s-36.834 -48.5 -48.501 -78.5s-17.5 -62 -17.5 -96v-2c0 -34 5.83301 -66.167 17.5 -96.5s28 -56.666 49 -78.999s46.167 -40.166 75.5 -53.499s61.333 -20 96 -20zM637.001 53.999c-30 -21.333 -62.6689 -37.667 -98.002 -49
s-73.666 -17 -114.999 -17c-54 0 -103.333 9.5 -148 28.5s-83 44.833 -115 77.5s-57 70.834 -75 114.501s-27 90.167 -27 139.5v2c0 49.333 9 95.833 27 139.5s43.333 82 76 115s71.334 59.167 116.001 78.5s94 29 148 29s103.333 -9.5 148 -28.5s83 -44.833 115 -77.5
s57 -70.834 75 -114.501s27 -90.167 27 -139.5v-2c0 -40 -6 -78.167 -18 -114.5s-29.667 -69.833 -53 -100.5l80 -68l-79 -88z" />
    <glyph glyph-name="R" unicode="R" horiz-adv-x="723" 
d="M393 353c44 0 79 10.5 105 31.5s39 49.5 39 85.5v2c0 38 -12.667 66.833 -38 86.5s-61 29.5 -107 29.5h-179v-235h180zM90 700l312 -0.000976562c44 0 83 -6.16699 117 -18.5s62.333 -29.5 85 -51.5c18.667 -19.333 33 -41.666 43 -66.999s15 -53.333 15 -84v-2
c0 -28.667 -4.16699 -54.5 -12.5 -77.5s-19.833 -43.333 -34.5 -61s-32.167 -32.667 -52.5 -45s-42.833 -21.833 -67.5 -28.5l189 -265h-145l-172 244h-2h-152v-244h-123v700z" />
    <glyph glyph-name="S" unicode="S" horiz-adv-x="640" 
d="M335 -10c-54 0 -105.667 9.16211 -155 27.4951s-95 46.5 -137 84.5l74 88c34 -29.333 68.333 -51.833 103 -67.5s74 -23.5 118 -23.5c38 0 68.167 8 90.5 24s33.5 37.333 33.5 64v2c0 12.667 -2.16699 23.834 -6.5 33.501s-12.333 18.834 -24 27.501
s-27.667 16.667 -48 24s-46.833 14.666 -79.5 21.999c-37.333 8.66699 -70.5 18.5 -99.5 29.5s-53.333 24.333 -73 40s-34.667 34.834 -45 57.501s-15.5 50 -15.5 82v2c0 30 6 57.5 18 82.5s28.5 46.333 49.5 64s46.167 31.5 75.5 41.5s61.333 15 96 15
c51.333 0 97.5 -7.5 138.5 -22.5s79.5 -36.833 115.5 -65.5l-66 -93c-32 23.333 -63.667 41.166 -95 53.499s-63 18.5 -95 18.5c-36 0 -64 -8 -84 -24s-30 -35.667 -30 -59v-2c0 -13.333 2.33301 -25.166 7 -35.499s13.167 -19.666 25.5 -27.999s29.333 -16.166 51 -23.499
s49.167 -15 82.5 -23c36.667 -9.33301 69.167 -19.666 97.5 -30.999s51.833 -25.166 70.5 -41.499s32.834 -35.333 42.501 -57s14.5 -46.834 14.5 -75.501v-2c0 -32.667 -6.16699 -62 -18.5 -88s-29.5 -48 -51.5 -66s-48.333 -31.667 -79 -41s-64.334 -14 -101.001 -14z" />
    <glyph glyph-name="T" unicode="T" horiz-adv-x="648" 
d="M262 586h-222v114h568v-114h-222v-586h-124v586z" />
    <glyph glyph-name="U" unicode="U" horiz-adv-x="757" 
d="M377 -11c-45.333 0 -86.332 6.49805 -122.999 19.498s-68 32.5 -94 58.5s-46 58.167 -60 96.5s-21 82.833 -21 133.5v403h123v-398c0 -65.333 15.667 -115 47 -149s74.666 -51 129.999 -51c54.667 0 97.667 16.333 129 49s47 81.334 47 146.001v403h123v-397
c0 -52 -7.16699 -97.667 -21.5 -137s-34.5 -72.166 -60.5 -98.499s-57.5 -46 -94.5 -59s-78.5 -19.5 -124.5 -19.5z" />
    <glyph glyph-name="V" unicode="V" horiz-adv-x="750" 
d="M30 700h136l211 -538l210 538h133l-291 -705h-108z" />
    <glyph glyph-name="W" unicode="W" horiz-adv-x="1116" 
d="M36 700h133l167 -519l172 521h104l172 -521l167 519h129l-244 -705h-106l-172 503l-172 -503h-106z" />
    <glyph glyph-name="X" unicode="X" horiz-adv-x="729" 
d="M292 356l-245 344h145l174 -251l175 251h141l-244 -342l254 -358h-145l-184 265l-185 -265h-141z" />
    <glyph glyph-name="Y" unicode="Y" horiz-adv-x="716" 
d="M296 276l-278 424h145l196 -310l198 310h141l-278 -421v-279h-124v276z" />
    <glyph glyph-name="Z" unicode="Z" horiz-adv-x="702" 
d="M65 91l413 500h-400v109h560v-91l-413 -500h413v-109h-573v91z" />
    <glyph glyph-name="bracketleft" unicode="[" horiz-adv-x="454" 
d="M88 700h307v-95h-192v-640h192v-95h-307v830z" />
    <glyph glyph-name="backslash" unicode="\" horiz-adv-x="521" 
d="M-11 798h105l452 -926h-105z" />
    <glyph glyph-name="bracketright" unicode="]" horiz-adv-x="454" 
d="M59 -35h192v640h-192v95h308v-830h-308v95z" />
    <glyph glyph-name="asciicircum" unicode="^" 
d="M207 701h86l151 -208h-93l-102 132l-102 -132h-91z" />
    <glyph glyph-name="underscore" unicode="_" horiz-adv-x="600" 
d="M-2 -66h604v-94h-604v94z" />
    <glyph glyph-name="grave" unicode="`" 
d="M124 710l110 49l106 -164h-94z" />
    <glyph glyph-name="a" unicode="a" horiz-adv-x="587" 
d="M402 221c-15.333 6 -33.501 10.9971 -54.501 14.9971s-43.167 6 -66.5 6c-38 0 -67.667 -7.33301 -89 -22s-32 -34.667 -32 -60v-2c0 -25.333 9.83301 -44.666 29.5 -57.999s43.834 -20 72.501 -20c20 0 38.5 2.66699 55.5 8s31.833 12.833 44.5 22.5
s22.5 21.334 29.5 35.001s10.5 28.834 10.5 45.501v30zM398.999 -0.00292969v65c-18 -21.333 -41 -39.333 -69 -54s-62 -22 -102 -22c-25.333 0 -49.333 3.5 -72 10.5s-42.5 17.333 -59.5 31s-30.667 30.667 -41 51s-15.5 43.833 -15.5 70.5v2
c0 29.333 5.33301 54.833 16 76.5s25.5 39.667 44.5 54s41.667 25 68 32s54.833 10.5 85.5 10.5c32 0 59.167 -2 81.5 -6s43.833 -9.33301 64.5 -16v10c0 36.667 -11.167 64.667 -33.5 84s-54.5 29 -96.5 29c-30 0 -56.667 -3 -80 -9s-47 -14 -71 -24l-33 97
c29.333 13.333 59.333 24 90 32s67.667 12 111 12c78.667 0 137 -19.5 175 -58.5s57 -93.833 57 -164.5v-313h-120z" />
    <glyph glyph-name="b" unicode="b" horiz-adv-x="670" 
d="M348 94c20.667 0 40.167 4 58.5 12s34.333 19.167 48 33.5s24.5 32 32.5 53s12 44.5 12 70.5v2c0 25.333 -4 48.5 -12 69.5s-18.833 38.833 -32.5 53.5s-29.667 26 -48 34s-37.833 12 -58.5 12s-40.334 -4 -59.001 -12s-35 -19.5 -49 -34.5s-25.167 -32.833 -33.5 -53.5
s-12.5 -43.667 -12.5 -69v-2c0 -25.333 4.16699 -48.5 12.5 -69.5s19.5 -38.833 33.5 -53.5s30.333 -26 49 -34s38.334 -12 59.001 -12zM376 -11c-43.333 0 -79.332 9.33203 -107.999 27.999s-52.334 40.334 -71.001 65.001v-82h-121v730h121v-290
c19.333 28 43.333 51.5 72 70.5s64.334 28.5 107.001 28.5c31.333 0 61.666 -6 90.999 -18s55.5 -29.667 78.5 -53s41.5 -52 55.5 -86s21 -73 21 -117v-2c0 -44 -6.83301 -83 -20.5 -117s-32 -62.667 -55 -86s-49.333 -41 -79 -53s-60.167 -18 -91.5 -18z" />
    <glyph glyph-name="c" unicode="c" horiz-adv-x="571" 
d="M320 -12c-39.333 0 -75.6689 7.16992 -109.002 21.5029s-62.166 33.833 -86.499 58.5s-43.333 53.667 -57 87s-20.5 68.666 -20.5 105.999v2c0 37.333 6.83301 72.833 20.5 106.5s32.667 63 57 88s53.333 44.833 87 59.5s70.167 22 109.5 22
c50 0 91.5 -8.33301 124.5 -25s61.833 -38.667 86.5 -66l-75 -81c-18.667 19.333 -38.5 35.166 -59.5 47.499s-46.833 18.5 -77.5 18.5c-22 0 -42.333 -4.5 -61 -13.5s-34.667 -21 -48 -36s-23.833 -32.833 -31.5 -53.5s-11.5 -42.334 -11.5 -65.001v-2
c0 -23.333 3.83301 -45.333 11.5 -66s18.5 -38.667 32.5 -54s30.667 -27.5 50 -36.5s40.666 -13.5 63.999 -13.5c28.667 0 53.834 6.16699 75.501 18.5s42.167 28.166 61.5 47.499l73 -72c-26 -29.333 -55.667 -53.166 -89 -71.499s-75.666 -27.5 -126.999 -27.5z" />
    <glyph glyph-name="d" unicode="d" horiz-adv-x="670" 
d="M323 94c20 0 39.333 4.00098 58 12.001s35 19.5 49 34.5s25.167 32.833 33.5 53.5s12.5 43.667 12.5 69v2c0 25.333 -4.16699 48.5 -12.5 69.5s-19.5 38.833 -33.5 53.5s-30.333 26 -49 34s-38 12 -58 12c-20.667 0 -40.167 -3.83301 -58.5 -11.5
s-34.5 -18.834 -48.5 -33.501s-25 -32.5 -33 -53.5s-12 -44.5 -12 -70.5v-2c0 -25.333 4 -48.5 12 -69.5s19 -38.833 33 -53.5s30.167 -26 48.5 -34s37.833 -12 58.5 -12zM294 -10.999c-31.333 0 -61.6689 6 -91.002 18s-55.333 29.667 -78 53s-41 52 -55 86s-21 73 -21 117
v2c0 44 6.83301 83 20.5 117s31.834 62.667 54.501 86s48.834 41 78.501 53s60.167 18 91.5 18c43.333 0 79.333 -9.33301 108 -28s52.667 -40.334 72 -65.001v284h121v-730h-121v88c-19.333 -27.333 -43.5 -50.666 -72.5 -69.999s-64.833 -29 -107.5 -29z" />
    <glyph glyph-name="e" unicode="e" horiz-adv-x="604" 
d="M438 301c-2 19.333 -6.33496 37.501 -13.002 54.501s-15.667 31.667 -27 44s-24.833 22.166 -40.5 29.499s-33.5 11 -53.5 11c-37.333 0 -68.166 -12.833 -92.499 -38.5s-39.166 -59.167 -44.499 -100.5h271zM317.998 -11.999c-38 0 -73.501 6.66504 -106.501 19.998
s-61.667 32 -86 56s-43.5 52.833 -57.5 86.5s-21 70.834 -21 111.501v2c0 38 6.33301 73.667 19 107s30.5 62.5 53.5 87.5s50.167 44.667 81.5 59s66 21.5 104 21.5c42 0 78.833 -7.66699 110.5 -23s58 -36 79 -62s36.833 -56.167 47.5 -90.5s16 -70.5 16 -108.5
c0 -5.33301 -0.166992 -10.833 -0.5 -16.5s-0.833008 -11.5 -1.5 -17.5h-388c6.66699 -43.333 23.834 -76.5 51.501 -99.5s61.167 -34.5 100.5 -34.5c30 0 56 5.33301 78 16s43.667 26.334 65 47.001l71 -63c-25.333 -30 -55.5 -54 -90.5 -72s-76.833 -27 -125.5 -27z" />
    <glyph glyph-name="f" unicode="f" horiz-adv-x="376" 
d="M103 424l-66.998 -0.000976562v101h67v38c0 58.667 14.333 102.334 43 131.001c28 28 67.667 42 119 42c21.333 0 39.666 -1.33301 54.999 -4s29.666 -6 42.999 -10v-102c-12 4 -23.5 7.16699 -34.5 9.5s-23.167 3.5 -36.5 3.5c-46.667 0 -70 -26.667 -70 -80v-29h140
v-100h-138v-424h-121v424z" />
    <glyph glyph-name="g" unicode="g" horiz-adv-x="670" 
d="M321 144c20.667 0 40.502 3.50098 59.502 10.501s35.5 17 49.5 30s25.167 28.333 33.5 46s12.5 37.167 12.5 58.5v2c0 22 -4.16699 41.833 -12.5 59.5s-19.5 33 -33.5 46s-30.5 23 -49.5 30s-38.833 10.5 -59.5 10.5c-21.333 0 -41 -3.5 -59 -10.5
s-33.833 -16.833 -47.5 -29.5s-24.334 -27.834 -32.001 -45.501s-11.5 -37.5 -11.5 -59.5v-2c0 -22 4 -41.833 12 -59.5s18.667 -33 32 -46s29.166 -23 47.499 -30s37.833 -10.5 58.5 -10.5zM311.002 -161.999c-88 0 -166.668 21.001 -236.001 63.001l45 91
c28 -17.333 57.333 -31 88 -41s64 -15 100 -15c54 0 95.333 13.667 124 41s43 67.666 43 120.999v41c-22 -28.667 -47.667 -52 -77 -70s-65.666 -27 -108.999 -27c-31.333 0 -61.333 5.66699 -90 17s-54.167 27.5 -76.5 48.5s-40.166 46.833 -53.499 77.5
s-20 65.334 -20 104.001v2c0 38.667 6.66699 73.5 20 104.5s31.166 57 53.499 78s48 37.167 77 48.5s58.833 17 89.5 17c44.667 0 81.5 -8.83301 110.5 -26.5s53.833 -38.834 74.5 -63.501v79h121v-420c0 -88 -22.333 -154.333 -67 -199
c-24 -24 -54.167 -41.833 -90.5 -53.5s-78.5 -17.5 -126.5 -17.5z" />
    <glyph glyph-name="h" unicode="h" horiz-adv-x="620" 
d="M76 730l121 0.000976562v-284c8.66699 12.667 18.167 24.5 28.5 35.5s22.333 20.833 36 29.5s28.667 15.5 45 20.5s34.833 7.5 55.5 7.5c60 0 106.333 -18.333 139 -55s49 -86 49 -148v-336h-121v300c0 41.333 -9.83301 73.166 -29.5 95.499s-47.5 33.5 -83.5 33.5
c-35.333 0 -64 -11.5 -86 -34.5s-33 -55.167 -33 -96.5v-298h-121v730z" />
    <glyph glyph-name="i" unicode="i" horiz-adv-x="286" 
d="M83 528h121v-528h-121v528zM78 724h130v-115h-130v115z" />
    <glyph glyph-name="j" unicode="j" horiz-adv-x="286" 
d="M50 -163c-11.333 0 -21.499 0.5 -30.499 1.5s-18.167 2.16699 -27.5 3.5v97c12 -2 23.333 -3 34 -3c17.333 0 31.166 4.83301 41.499 14.5s15.5 26.167 15.5 49.5v528h121v-535c0 -54 -13.167 -93.5 -39.5 -118.5s-64.5 -37.5 -114.5 -37.5zM78.001 724h130v-115h-130
v115z" />
    <glyph glyph-name="k" unicode="k" horiz-adv-x="582" 
d="M76 730h121v-436l219 234h147l-210 -215l217 -313h-140l-159 228l-74 -77v-151h-121v730z" />
    <glyph glyph-name="l" unicode="l" horiz-adv-x="286" 
d="M83 730h121v-730h-121v730z" />
    <glyph glyph-name="m" unicode="m" horiz-adv-x="950" 
d="M76 528l121 -0.00195312v-80c8.66699 12 18 23.333 28 34s21.5 20.334 34.5 29.001s27.667 15.5 44 20.5s34.5 7.5 54.5 7.5c38 0 70.167 -8.5 96.5 -25.5s46.5 -39.5 60.5 -67.5c21.333 28 46.5 50.5 75.5 67.5s63.5 25.5 103.5 25.5c58 0 103.333 -17.5 136 -52.5
s49 -84.833 49 -149.5v-337h-121v300c0 42 -9.33301 74 -28 96s-45 33 -79 33c-33.333 0 -60.5 -11.167 -81.5 -33.5s-31.5 -54.833 -31.5 -97.5v-298h-121v301c0 41.333 -9.33301 73 -28 95s-45 33 -79 33s-61.333 -11.667 -82 -35s-31 -55.666 -31 -96.999v-297h-121v528z
" />
    <glyph glyph-name="n" unicode="n" horiz-adv-x="620" 
d="M76 528l121 0.000976562v-82c8.66699 12.667 18.167 24.5 28.5 35.5s22.333 20.833 36 29.5s28.667 15.5 45 20.5s34.833 7.5 55.5 7.5c60 0 106.333 -18.333 139 -55s49 -86 49 -148v-336h-121v300c0 41.333 -9.83301 73.166 -29.5 95.499s-47.5 33.5 -83.5 33.5
c-35.333 0 -64 -11.5 -86 -34.5s-33 -55.167 -33 -96.5v-298h-121v528z" />
    <glyph glyph-name="o" unicode="o" horiz-adv-x="657" 
d="M329 93c24.667 0 46.833 4.50098 66.5 13.501s36.5 21.167 50.5 36.5s24.667 33.166 32 53.499s11 41.833 11 64.5v2c0 23.333 -4 45.333 -12 66s-19.167 38.667 -33.5 54s-31.333 27.5 -51 36.5s-41.5 13.5 -65.5 13.5s-45.833 -4.5 -65.5 -13.5s-36.5 -21 -50.5 -36
s-24.667 -32.833 -32 -53.5s-11 -42.334 -11 -65.001v-2c0 -23.333 4 -45.166 12 -65.499s19.167 -38.333 33.5 -54s31.333 -28 51 -37s41.167 -13.5 64.5 -13.5zM326.999 -11.999c-40 0 -77.166 7.16699 -111.499 21.5s-64 33.833 -89 58.5s-44.5 53.667 -58.5 87
s-21 68.666 -21 105.999v2c0 38 7.16699 73.667 21.5 107s34 62.5 59 87.5s54.667 44.833 89 59.5s71.833 22 112.5 22s78.167 -7.16699 112.5 -21.5s64 -34 89 -59s44.5 -54 58.5 -87s21 -68.5 21 -106.5v-2c0 -37.333 -7.16699 -72.666 -21.5 -105.999
s-34 -62.5 -59 -87.5s-54.833 -44.833 -89.5 -59.5s-72.334 -22 -113.001 -22z" />
    <glyph glyph-name="p" unicode="p" horiz-adv-x="670" 
d="M348 94c20.667 0 40.167 4 58.5 12s34.333 19.167 48 33.5s24.5 32 32.5 53s12 44.5 12 70.5v2c0 25.333 -4 48.5 -12 69.5s-18.833 38.833 -32.5 53.5s-29.667 26 -48 34s-37.833 12 -58.5 12s-40.334 -4 -59.001 -12s-35 -19.5 -49 -34.5s-25.167 -32.833 -33.5 -53.5
s-12.5 -43.667 -12.5 -69v-2c0 -25.333 4.16699 -48.5 12.5 -69.5s19.5 -38.833 33.5 -53.5s30.333 -26 49 -34s38.334 -12 59.001 -12zM76 528l121.001 -0.000976562v-88c19.333 28 43.333 51.5 72 70.5s64.334 28.5 107.001 28.5c31.333 0 61.666 -6 90.999 -18
s55.5 -29.667 78.5 -53s41.5 -52 55.5 -86s21 -73 21 -117v-2c0 -44 -6.83301 -83 -20.5 -117s-32 -62.667 -55 -86s-49.333 -41 -79 -53s-60.167 -18 -91.5 -18c-43.333 0 -79.333 9.33301 -108 28s-52.334 40.334 -71.001 65.001v-242h-121v688z" />
    <glyph glyph-name="q" unicode="q" horiz-adv-x="670" 
d="M323 94c20 0 39.333 4.00098 58 12.001s35 19.5 49 34.5s25.167 32.833 33.5 53.5s12.5 43.667 12.5 69v2c0 25.333 -4.16699 48.5 -12.5 69.5s-19.5 38.833 -33.5 53.5s-30.333 26 -49 34s-38 12 -58 12c-20.667 0 -40.167 -3.83301 -58.5 -11.5
s-34.5 -18.834 -48.5 -33.501s-25 -32.5 -33 -53.5s-12 -44.5 -12 -70.5v-2c0 -25.333 4 -48.5 12 -69.5s19 -38.833 33 -53.5s30.167 -26 48.5 -34s37.833 -12 58.5 -12zM474 88.001c-19.333 -27.333 -43.5029 -50.666 -72.5029 -69.999s-64.833 -29 -107.5 -29
c-31.333 0 -61.666 6 -90.999 18s-55.333 29.667 -78 53s-41 52 -55 86s-21 73 -21 117v2c0 44 6.83301 83 20.5 117s31.834 62.667 54.501 86s48.834 41 78.501 53s60.167 18 91.5 18c43.333 0 79.333 -9.33301 108 -28s52.667 -40.334 72 -65.001v82h121v-688h-121v248z
" />
    <glyph glyph-name="r" unicode="r" horiz-adv-x="413" 
d="M76 528l120.998 -0.000976562v-119c16.667 40 40.334 72 71.001 96s69.334 35 116.001 33v-128h-7c-26.667 0 -51 -4.33301 -73 -13s-41 -21.667 -57 -39s-28.333 -39.166 -37 -65.499s-13 -56.833 -13 -91.5v-201h-121v528z" />
    <glyph glyph-name="s" unicode="s" 
d="M257 -10c-38 0 -76.498 6.67383 -115.498 20.0068s-75.167 33 -108.5 59l54 82c28.667 -21.333 57.834 -37.5 87.501 -48.5s58.167 -16.5 85.5 -16.5c26 0 46.167 5.16699 60.5 15.5s21.5 24.166 21.5 41.499v2c0 10 -3.16699 18.667 -9.5 26s-15 13.666 -26 18.999
s-23.667 10.333 -38 15l-44.5 14c-19.333 5.33301 -38.833 11.666 -58.5 18.999s-37.334 16.833 -53.001 28.5s-28.5 26.167 -38.5 43.5s-15 38.666 -15 63.999v2c0 24.667 4.83301 47 14.5 67s23 37 40 51s37 24.667 60 32s47.5 11 73.5 11c33.333 0 67 -5.33301 101 -16
s65 -25.334 93 -44.001l-48 -86c-25.333 15.333 -51 27.5 -77 36.5s-50 13.5 -72 13.5c-23.333 0 -41.5 -5 -54.5 -15s-19.5 -22.667 -19.5 -38v-2c0 -9.33301 3.33301 -17.5 10 -24.5s15.5 -13.333 26.5 -19s23.667 -11 38 -16s29.166 -9.83301 44.499 -14.5
c19.333 -6 38.666 -13 57.999 -21s36.833 -17.833 52.5 -29.5s28.5 -25.834 38.5 -42.501s15 -37 15 -61v-2c0 -28 -5 -52.333 -15 -73s-23.833 -37.834 -41.5 -51.501s-38.5 -24 -62.5 -31s-49.667 -10.5 -77 -10.5z" />
    <glyph glyph-name="t" unicode="t" horiz-adv-x="410" 
d="M253 -9c-22 0 -42.333 2.66699 -61 8s-34.834 14 -48.501 26s-24.167 27.833 -31.5 47.5s-11 44.167 -11 73.5v278h-67v104h67v145h121v-145h142v-104h-142v-259c0 -23.333 5.66699 -40.166 17 -50.499s27.333 -15.5 48 -15.5c26 0 51 6 75 18v-99
c-15.333 -8.66699 -31.666 -15.334 -48.999 -20.001s-37.333 -7 -60 -7z" />
    <glyph glyph-name="u" unicode="u" horiz-adv-x="620" 
d="M258 -11c-60 0 -106.333 18.3311 -139 54.998s-49 86 -49 148v336h121v-300c0 -41.333 9.83301 -73.166 29.5 -95.499s47.5 -33.5 83.5 -33.5c35.333 0 64 11.5 86 34.5s33 55.167 33 96.5v298h121v-528h-121v82c-17.333 -25.333 -39 -47.166 -65 -65.499
s-59.333 -27.5 -100 -27.5z" />
    <glyph glyph-name="v" unicode="v" horiz-adv-x="595" 
d="M26 528h130l142 -388l143 388h127l-216 -532h-109z" />
    <glyph glyph-name="w" unicode="w" horiz-adv-x="861" 
d="M32 528h124l106 -362l117 364h103l118 -364l108 362h121l-173 -532h-108l-118 361l-119 -361h-108z" />
    <glyph glyph-name="x" unicode="x" horiz-adv-x="580" 
d="M224 268l-187 260h132l122 -174l122 174h129l-187 -257l195 -271h-132l-130 185l-129 -185h-129z" />
    <glyph glyph-name="y" unicode="y" horiz-adv-x="596" 
d="M184 -163c-25.333 0 -47.832 2.83398 -67.499 8.50098s-38.834 13.5 -57.501 23.5l41 90c11.333 -6 22.833 -10.833 34.5 -14.5s23.834 -5.5 36.501 -5.5c17.333 0 31.666 4.33301 42.999 13s22 24.667 32 48l-220 528h129l150 -392l137 392h126l-210 -543
c-10.667 -27.333 -21.667 -50.333 -33 -69s-24 -33.834 -38 -45.501s-29.333 -20.167 -46 -25.5s-35.667 -8 -57 -8z" />
    <glyph glyph-name="z" unicode="z" horiz-adv-x="560" 
d="M52 83l305 346h-294v99h448v-83l-305 -346h305v-99h-459v83z" />
    <glyph glyph-name="braceleft" unicode="{" horiz-adv-x="487" 
d="M416 -141c-45.333 8 -82.666 18.166 -111.999 30.499s-52.5 26.666 -69.5 42.999s-28.833 35 -35.5 56s-10 44.5 -10 70.5c0 4 0.166992 9.16699 0.5 15.5s0.5 13 0.5 20s0.166992 13.833 0.5 20.5s0.5 12 0.5 16c0 39.333 -8.33301 67.5 -25 84.5s-46 25.5 -88 25.5h-26
v92h26c42 0 71.333 8.5 88 25.5s25 45.167 25 84.5c0 4 -0.166992 9.33301 -0.5 16s-0.5 13.5 -0.5 20.5s-0.166992 13.667 -0.5 20s-0.5 11.5 -0.5 15.5c0 26 3.33301 49.333 10 70s18.5 39.334 35.5 56.001s40.167 31.167 69.5 43.5s66.666 22.5 111.999 30.5l21 -80
c-30 -8 -54 -16.333 -72 -25s-31.667 -18.167 -41 -28.5s-15.5 -22.333 -18.5 -36s-4.5 -29.5 -4.5 -47.5c0 -10 0.333008 -22.167 1 -36.5s1 -26.833 1 -37.5c0 -39.333 -9 -69.333 -27 -90s-43.667 -36.334 -77 -47.001c34 -11.333 59.833 -27.166 77.5 -47.499
s26.5 -50.166 26.5 -89.499c0 -10.667 -0.333008 -23.167 -1 -37.5s-1 -26.5 -1 -36.5c0 -18 1.5 -33.833 4.5 -47.5s9.16699 -25.667 18.5 -36s23 -19.833 41 -28.5s42 -17 72 -25z" />
    <glyph glyph-name="bar" unicode="|" horiz-adv-x="331" 
d="M117 798h97v-926h-97v926z" />
    <glyph glyph-name="braceright" unicode="}" horiz-adv-x="487" 
d="M50 -61c30 8 54 16.334 72 25.001s31.667 18.167 41 28.5s15.5 22.333 18.5 36s4.5 29.5 4.5 47.5c0 10 -0.333008 22.167 -1 36.5s-1 26.833 -1 37.5c0 39.333 9 69.333 27 90s43.667 36.334 77 47.001c-34 11.333 -59.833 27.166 -77.5 47.499
s-26.5 50.166 -26.5 89.499c0 10.667 0.333008 23.167 1 37.5s1 26.5 1 36.5c0 18 -1.5 33.833 -4.5 47.5s-9.16699 25.667 -18.5 36s-23 19.833 -41 28.5s-42 17 -72 25l21 80c45.333 -8 82.666 -18.167 111.999 -30.5s52.5 -26.833 69.5 -43.5
s28.833 -35.334 35.5 -56.001s10 -44 10 -70c0 -4 -0.166992 -9.16699 -0.5 -15.5s-0.5 -13 -0.5 -20s-0.166992 -13.833 -0.5 -20.5s-0.5 -12 -0.5 -16c0 -39.333 8.33301 -67.5 25 -84.5s46 -25.5 88 -25.5h26v-92h-26c-42 0 -71.333 -8.5 -88 -25.5
s-25 -45.167 -25 -84.5c0 -4 0.166992 -9.33301 0.5 -16s0.5 -13.5 0.5 -20.5s0.166992 -13.667 0.5 -20s0.5 -11.5 0.5 -15.5c0 -26 -3.33301 -49.5 -10 -70.5s-18.5 -39.667 -35.5 -56s-40.167 -30.666 -69.5 -42.999s-66.666 -22.5 -111.999 -30.5z" />
    <glyph glyph-name="asciitilde" unicode="~" horiz-adv-x="495" 
d="M59 250c11.333 40 25.166 70.667 41.499 92s39.833 32 70.5 32c14 0 27.667 -2.16699 41 -6.5s26 -9 38 -14s23.5 -9.5 34.5 -13.5s20.833 -6 29.5 -6c14.667 0 25.667 4 33 12s14.666 20.667 21.999 38l67 -20c-11.333 -40.667 -25.166 -71.667 -41.499 -93
s-39.833 -32 -70.5 -32c-14 0 -27.667 2 -41 6s-26 8.5 -38 13.5l-34.5 14c-11 4.33301 -20.833 6.5 -29.5 6.5c-14.667 0 -25.667 -4 -33 -12s-14.666 -20.667 -21.999 -38z" />
    <glyph glyph-name="nonbreakingspace" unicode="&#xa0;" horiz-adv-x="300" 
 />
    <glyph glyph-name="exclamdown" unicode="&#xa1;" horiz-adv-x="302" 
d="M80 35l38 444h67l37 -444v-35h-142v35zM85 700h133v-137h-133v137z" />
    <glyph glyph-name="cent" unicode="&#xa2;" horiz-adv-x="581" 
d="M318 525c-21.333 -0.666992 -41.001 -5.5 -59.001 -14.5s-33.667 -21 -47 -36s-23.666 -32.667 -30.999 -53s-11 -41.833 -11 -64.5v-2c0 -34 7.5 -64.5 22.5 -91.5s35.833 -47.5 62.5 -61.5zM229.999 96c-26 9.33301 -49.9961 22.3311 -71.9961 38.998
s-40.833 36.334 -56.5 59.001s-27.834 47.5 -36.501 74.5s-13 55.167 -13 84.5v2c0 38 6.83301 73.667 20.5 107s32.667 62.5 57 87.5s53.166 44.667 86.499 59s69.666 21.5 108.999 21.5h9l15 76h88l-18 -89c24.667 -7.33301 46.5 -17.833 65.5 -31.5
s36.5 -29.167 52.5 -46.5l-73 -78c-10.667 10.667 -21.667 20.334 -33 29.001s-23.333 15.667 -36 21l-65 -326c28 0.666992 53.167 7 75.5 19s43.166 27.333 62.499 46l70 -69c-26 -29.333 -56.333 -53.5 -91 -72.5s-76.667 -28.5 -126 -28.5h-6l-17 -86h-88z" />
    <glyph glyph-name="sterling" unicode="&#xa3;" horiz-adv-x="644" 
d="M63 78l79 23.999v176h-79v104h79v92c0 36.667 5.33301 69.834 16 99.501s26 54.5 46 74.5c40 41.333 96 62 168 62c28 0 53 -2.83301 75 -8.5s41.833 -13.5 59.5 -23.5s33.5 -21.833 47.5 -35.5s27 -28.5 39 -44.5l-94 -75c-18 23.333 -36.5 41.333 -55.5 54
s-42.5 19 -70.5 19c-15.333 0 -29 -2.33301 -41 -7s-22.667 -11.667 -32 -21c-10.667 -11.333 -19 -25 -25 -41s-9 -34.667 -9 -56v-89h249v-104h-249v-171h325v-107h-528v78z" />
    <glyph glyph-name="currency" unicode="&#xa4;" horiz-adv-x="720" 
d="M434 -12c-37.333 0 -71.665 5.66602 -102.998 16.999s-59.333 27.5 -84 48.5s-45.834 46 -63.501 75s-31.167 61.167 -40.5 96.5h-91v85h77c-0.666992 6.66699 -1 13 -1 19v19v2v22.5c0 7.66699 0.666992 15.167 2 22.5h-78v85h94c10 34 23.833 65.167 41.5 93.5
s38.5 52.666 62.5 72.999s51.167 36.333 81.5 48s63.166 17.5 98.499 17.5c30.667 0 58.167 -3.33301 82.5 -10s46.166 -15.834 65.499 -27.501s36.833 -25.667 52.5 -42s30.167 -33.833 43.5 -52.5l-93 -69c-21.333 29.333 -43.666 51.833 -66.999 67.5
s-52.333 23.5 -87 23.5c-36 0 -67.167 -10.833 -93.5 -32.5s-46.5 -51.5 -60.5 -89.5h215v-85h-234c-0.666992 -6.66699 -1.16699 -13.667 -1.5 -21s-0.5 -14.666 -0.5 -21.999v-2c0 -7.33301 0.166992 -14.166 0.5 -20.499s0.833008 -12.833 1.5 -19.5h234v-85h-216
c13.333 -39.333 34 -70.333 62 -93s61.667 -34 101 -34c16.667 0 31.834 2.16699 45.501 6.5s26.5 10.5 38.5 18.5s23.667 17.833 35 29.5s22.666 25.167 33.999 40.5l88 -64c-14 -20.667 -29.167 -39.667 -45.5 -57s-34.333 -32.166 -54 -44.499s-41.167 -22 -64.5 -29
s-49.333 -10.5 -78 -10.5z" />
    <glyph glyph-name="yen" unicode="&#xa5;" horiz-adv-x="686" 
d="M284 102h-193v89h193v73h-193v89h159l-231 347h143l183 -293l183 293h139l-232 -347h160v-89h-193v-73h193v-89h-193v-102h-118v102z" />
    <glyph glyph-name="section" unicode="&#xa7;" horiz-adv-x="632" 
d="M388 278c22.667 0 41.167 5.16699 55.5 15.5s21.5 23.166 21.5 38.499v2c0 14.667 -8.83301 27.334 -26.5 38.001s-47.834 21.334 -90.501 32.001c-25.333 6.66699 -46.166 11.334 -62.499 14.001s-30.166 4 -41.499 4c-22.667 0 -41.167 -5.16699 -55.5 -15.5
s-21.5 -23.166 -21.5 -38.499v-2c0 -14.667 8.83301 -27.334 26.5 -38.001s47.834 -21.334 90.501 -32.001c25.333 -6.66699 46.166 -11.334 62.499 -14.001s30.166 -4 41.499 -4zM326 -10c-49.333 0 -93.166 8.33691 -131.499 25.0039s-71.5 40 -99.5 70l69 68
c23.333 -21.333 48 -38.5 74 -51.5s55 -19.5 87 -19.5c28 0 48.5 4.66699 61.5 14s19.5 21 19.5 35v2c0 7.33301 -2 14 -6 20s-11 11.667 -21 17s-23.5 10.666 -40.5 15.999s-38.5 11 -64.5 17c-38.667 8.66699 -71.667 17.834 -99 27.501s-49.666 20.167 -66.999 31.5
s-30 24.166 -38 38.499s-12 30.5 -12 48.5v2c0 32.667 10.167 58.167 30.5 76.5s45.833 31.5 76.5 39.5c-18 11.333 -31.667 25.166 -41 41.499s-14 34.166 -14 53.499v2c0 44.667 17.333 80.167 52 106.5s82.667 39.5 144 39.5c49.333 0 93.166 -8.33301 131.499 -25
s71.5 -40 99.5 -70l-69 -68c-23.333 21.333 -48 38.5 -74 51.5s-55 19.5 -87 19.5c-26.667 0 -46.834 -4.5 -60.501 -13.5s-20.5 -20.833 -20.5 -35.5v-2c0 -6.66699 1.83301 -13 5.5 -19s10.334 -11.667 20.001 -17s23 -10.833 40 -16.5s39.167 -11.5 66.5 -17.5
c38.667 -8.66699 71.667 -17.834 99 -27.501s49.666 -20.167 66.999 -31.5s30 -24.166 38 -38.499s12 -30.5 12 -48.5v-2c0 -32 -10.167 -57.333 -30.5 -76s-45.833 -32 -76.5 -40c17.333 -10.667 30.833 -24.334 40.5 -41.001s14.5 -34.667 14.5 -54v-2
c0 -44 -17.167 -79.333 -51.5 -106s-82.5 -40 -144.5 -40z" />
    <glyph glyph-name="dieresis" unicode="&#xa8;" 
d="M89 713h123v-118h-123v118zM288 713h123v-118h-123v118z" />
    <glyph glyph-name="copyright" unicode="&#xa9;" horiz-adv-x="830" 
d="M419 159c-27.333 0 -52.833 5.00098 -76.5 15.001s-44 23.833 -61 41.5s-30.333 38.167 -40 61.5s-14.5 48.666 -14.5 75.999v2c0 26.667 4.83301 51.834 14.5 75.501s23 44.5 40 62.5s37.5 32.167 61.5 42.5s50 15.5 78 15.5c36 0 65.333 -5.5 88 -16.5
s43 -25.167 61 -42.5l-47 -54c-14.667 13.333 -30.334 24.166 -47.001 32.499s-35 12.5 -55 12.5c-17.333 0 -33.166 -3.33301 -47.499 -10s-26.666 -15.834 -36.999 -27.501s-18.5 -25.167 -24.5 -40.5s-9 -31.666 -9 -48.999v-2c0 -17.333 3 -33.666 9 -48.999
s14.167 -28.833 24.5 -40.5s22.666 -20.834 36.999 -27.501s30.166 -10 47.499 -10c22.667 0 41.834 4.16699 57.501 12.5s31.167 19.833 46.5 34.5l48 -47c-20 -21.333 -41.667 -38 -65 -50s-53 -18 -89 -18zM414 24.001c46 0 88.833 8.66699 128.5 26
s74 40.666 103 69.999s51.833 63.833 68.5 103.5s25 81.834 25 126.501v2c0 44.667 -8.16699 86.667 -24.5 126s-39 73.666 -68 102.999s-63.167 52.5 -102.5 69.5s-82 25.5 -128 25.5s-88.833 -8.66699 -128.5 -26s-74 -40.666 -103 -69.999s-51.833 -63.833 -68.5 -103.5
s-25 -81.834 -25 -126.501v-2c0 -44.667 8.16699 -86.667 24.5 -126s39 -73.666 68 -102.999s63.167 -52.5 102.5 -69.5s82 -25.5 128 -25.5zM414 -11.999c-50.667 0 -98 9.5 -142 28.5s-82.167 44.833 -114.5 77.5s-57.833 70.834 -76.5 114.501s-28 90.167 -28 139.5v2
c0 49.333 9.33301 95.833 28 139.5s44.334 82 77.001 115s71.167 59.167 115.5 78.5s91.833 29 142.5 29s98 -9.5 142 -28.5s82.167 -44.833 114.5 -77.5s57.833 -70.834 76.5 -114.501s28 -90.167 28 -139.5v-2c0 -49.333 -9.33301 -95.833 -28 -139.5
s-44.334 -82 -77.001 -115s-71.167 -59.167 -115.5 -78.5s-91.833 -29 -142.5 -29z" />
    <glyph glyph-name="ordfeminine" unicode="&#xaa;" horiz-adv-x="390" 
d="M177 454c21.333 0 39.167 5.66699 53.5 17s21.5 25.666 21.5 42.999v18c-8.66699 3.33301 -18 6 -28 8s-21.667 3 -35 3c-20 0 -35.667 -4 -47 -12s-17 -19 -17 -33v-2c0 -13.333 4.83301 -23.666 14.5 -30.999s22.167 -11 37.5 -11zM53.001 340h270v-58h-270v58z
M159.001 403c-14 0 -27.165 2.00195 -39.498 6.00195s-23.166 9.66699 -32.499 17s-16.833 16.666 -22.5 27.999s-8.5 24.333 -8.5 39v2c0 31.333 11.167 54.666 33.5 69.999s51.166 23 86.499 23c16 0 29.833 -1 41.5 -3s23.167 -4.66699 34.5 -8v5
c0 40.667 -23.333 61 -70 61c-15.333 0 -29.5 -1.83301 -42.5 -5.5s-26.5 -8.16699 -40.5 -13.5l-19 54c17.333 8 34.333 14.167 51 18.5s36.667 6.5 60 6.5c43.333 0 75.666 -11 96.999 -33c10.667 -10 18.5 -22.667 23.5 -38s7.5 -32.333 7.5 -51v-172h-68v34
c-10.667 -12 -23.334 -21.667 -38.001 -29s-32.667 -11 -54 -11z" />
    <glyph glyph-name="guillemotleft" unicode="&#xab;" horiz-adv-x="606" 
d="M44 260v8l166 220l92 -47l-132 -176l132 -177l-92 -47zM296 260v8l165 220l92 -47l-132 -176l132 -177l-92 -47z" />
    <glyph glyph-name="registered" unicode="&#xae;" horiz-adv-x="830" 
d="M435 365c23.333 0 41.666 5.33301 54.999 16s20 25 20 43v2c0 19.333 -6.66699 34 -20 44s-31.666 15 -54.999 15h-94v-120h94zM269 550l169.001 -0.000976562c49.333 0 87.666 -13.667 114.999 -41c20.667 -19.333 31 -45.666 31 -78.999v-2
c0 -30.667 -8.16699 -55.5 -24.5 -74.5s-37.5 -32.167 -63.5 -39.5l102 -143h-86l-92 131h-2h-77v-131h-72v379zM414.001 23.999c46 0 88.833 8.66699 128.5 26s74 40.666 103 69.999s51.833 63.833 68.5 103.5s25 81.834 25 126.501v2c0 44.667 -8.16699 86.667 -24.5 126
s-39 73.666 -68 102.999s-63.167 52.5 -102.5 69.5s-82 25.5 -128 25.5s-88.833 -8.66699 -128.5 -26s-74 -40.666 -103 -69.999s-51.833 -63.833 -68.5 -103.5s-25 -81.834 -25 -126.501v-2c0 -44.667 8.16699 -86.667 24.5 -126s39 -73.666 68 -102.999
s63.167 -52.5 102.5 -69.5s82 -25.5 128 -25.5zM414.001 -12.001c-50.667 0 -98 9.5 -142 28.5s-82.167 44.833 -114.5 77.5s-57.833 70.834 -76.5 114.501s-28 90.167 -28 139.5v2c0 49.333 9.33301 95.833 28 139.5s44.334 82 77.001 115s71.167 59.167 115.5 78.5
s91.833 29 142.5 29s98 -9.5 142 -28.5s82.167 -44.833 114.5 -77.5s57.833 -70.834 76.5 -114.501s28 -90.167 28 -139.5v-2c0 -49.333 -9.33301 -95.833 -28 -139.5s-44.334 -82 -77.001 -115s-71.167 -59.167 -115.5 -78.5s-91.833 -29 -142.5 -29z" />
    <glyph glyph-name="macron" unicode="&#xaf;" 
d="M79 689h342v-89h-342v89z" />
    <glyph glyph-name="macron" unicode="&#x2c9;" 
d="M79 689h342v-89h-342v89z" />
    <glyph glyph-name="degree" unicode="&#xb0;" horiz-adv-x="471" 
d="M235 447c14 0 26.667 2.66699 38 8s21.333 12.333 30 21s15.334 18.834 20.001 30.501s7 23.834 7 36.501v2c0 12.667 -2.33301 24.834 -7 36.501s-11.334 21.834 -20.001 30.501s-18.667 15.5 -30 20.5s-24 7.5 -38 7.5c-13.333 0 -25.833 -2.5 -37.5 -7.5
s-21.667 -11.833 -30 -20.5s-14.833 -18.834 -19.5 -30.501s-7 -23.834 -7 -36.501v-2c0 -12.667 2.33301 -24.834 7 -36.501s11.167 -21.834 19.5 -30.501s18.333 -15.667 30 -21s24.167 -8 37.5 -8zM235 381c-22 0 -43 4.33301 -63 13s-37.667 20.5 -53 35.5
s-27.5 32.167 -36.5 51.5s-13.5 40 -13.5 62v2c0 22 4.5 42.667 13.5 62s21.167 36.333 36.5 51s33 26.334 53 35.001s41 13 63 13s43 -4.33301 63 -13s37.833 -20.334 53.5 -35.001s28 -31.667 37 -51s13.5 -40 13.5 -62v-2c0 -22 -4.5 -42.667 -13.5 -62
s-21.333 -36.5 -37 -51.5s-33.5 -26.833 -53.5 -35.5s-41 -13 -63 -13z" />
    <glyph glyph-name="plusminus" unicode="&#xb1;" horiz-adv-x="610" 
d="M311 -12c-57.333 0 -109.004 11.168 -155.004 33.501s-85 51.833 -117 88.5l85 79c24.667 -28 52.167 -50 82.5 -66s65.833 -24 106.5 -24c38.667 0 69.167 9.16699 91.5 27.5s33.5 42.833 33.5 73.5v2c0 32 -13.5 56.5 -40.5 73.5s-64.833 25.5 -113.5 25.5h-75v104h78
c40.667 0 72.834 9.16699 96.501 27.5s35.5 42.5 35.5 72.5v2c0 28 -10.667 50.667 -32 68s-51 26 -89 26c-34 0 -63.167 -7.83301 -87.5 -23.5s-48.166 -37.167 -71.499 -64.5l-86 70c14.667 19.333 30.5 37 47.5 53s35.333 29.667 55 41s41.334 20 65.001 26
s50.167 9 79.5 9c36 0 68.833 -4.66699 98.5 -14s55 -22.333 76 -39s37.333 -36.5 49 -59.5s17.5 -47.833 17.5 -74.5v-2c0 -44 -10.167 -78.833 -30.5 -104.5s-44.833 -45.5 -73.5 -59.5c17.333 -6.66699 33.5 -14.667 48.5 -24s28 -20.333 39 -33
s19.667 -27.334 26 -44.001s9.5 -35.667 9.5 -57v-2c0 -30 -5.66699 -57.833 -17 -83.5s-27.666 -48 -48.999 -67s-47.5 -33.833 -78.5 -44.5s-65.833 -16 -104.5 -16z" />
    <glyph glyph-name="acute" unicode="&#xb4;" 
d="M266 759l110 -49l-122 -115h-94z" />
    <glyph glyph-name="mu" unicode="&#xb5;" horiz-adv-x="850" 
d="M426 101c34.667 0 66.5 6.5 95.5 19.5s53.833 30.667 74.5 53s36.834 48.5 48.501 78.5s17.5 62 17.5 96v2c0 34 -5.83301 66.167 -17.5 96.5s-28 56.666 -49 78.999s-46.167 40.166 -75.5 53.499s-61.333 20 -96 20s-66.5 -6.5 -95.5 -19.5s-53.833 -30.667 -74.5 -53
s-36.834 -48.5 -48.501 -78.5s-17.5 -62 -17.5 -96v-2c0 -34 5.83301 -66.167 17.5 -96.5s28 -56.666 49 -78.999s46.167 -40.166 75.5 -53.499s61.333 -20 96 -20zM549 10c-19.333 -7.33301 -39.333 -12.833 -60 -16.5s-42.334 -5.5 -65.001 -5.5
c-54 0 -103.333 9.5 -148 28.5s-83 44.833 -115 77.5s-57 70.834 -75 114.501s-27 90.167 -27 139.5v2c0 49.333 9 95.833 27 139.5s43.333 82 76 115s71.334 59.167 116.001 78.5s94 29 148 29s103.333 -9.5 148 -28.5s83 -44.833 115 -77.5s57 -70.834 75 -114.501
s27 -90.167 27 -139.5v-2c0 -53.333 -10.5 -103.333 -31.5 -150s-50.5 -87 -88.5 -121l175 -172v-8h-180z" />
    <glyph glyph-name="mu" unicode="&#x3bc;" horiz-adv-x="850" 
d="M426 101c34.667 0 66.5 6.5 95.5 19.5s53.833 30.667 74.5 53s36.834 48.5 48.501 78.5s17.5 62 17.5 96v2c0 34 -5.83301 66.167 -17.5 96.5s-28 56.666 -49 78.999s-46.167 40.166 -75.5 53.499s-61.333 20 -96 20s-66.5 -6.5 -95.5 -19.5s-53.833 -30.667 -74.5 -53
s-36.834 -48.5 -48.501 -78.5s-17.5 -62 -17.5 -96v-2c0 -34 5.83301 -66.167 17.5 -96.5s28 -56.666 49 -78.999s46.167 -40.166 75.5 -53.499s61.333 -20 96 -20zM549 10c-19.333 -7.33301 -39.333 -12.833 -60 -16.5s-42.334 -5.5 -65.001 -5.5
c-54 0 -103.333 9.5 -148 28.5s-83 44.833 -115 77.5s-57 70.834 -75 114.501s-27 90.167 -27 139.5v2c0 49.333 9 95.833 27 139.5s43.333 82 76 115s71.334 59.167 116.001 78.5s94 29 148 29s103.333 -9.5 148 -28.5s83 -44.833 115 -77.5s57 -70.834 75 -114.501
s27 -90.167 27 -139.5v-2c0 -53.333 -10.5 -103.333 -31.5 -150s-50.5 -87 -88.5 -121l175 -172v-8h-180z" />
    <glyph glyph-name="paragraph" unicode="&#xb6;" horiz-adv-x="557" 
d="M346 244l-17.999 0.000976562c-41.333 0 -79.5 4.83301 -114.5 14.5s-65.333 24 -91 43s-45.834 42.667 -60.501 71s-22 61.166 -22 98.499v2c0 35.333 6.66699 67 20 95s31.833 51.833 55.5 71.5s52.167 34.667 85.5 45s70 15.5 110 15.5h159v-700h-124v244z" />
    <glyph glyph-name="periodcentered" unicode="&#xb7;" horiz-adv-x="269" 
d="M68 375h133v-137h-133v137z" />
    <glyph glyph-name="periodcentered" unicode="&#x2219;" horiz-adv-x="269" 
d="M68 375h133v-137h-133v137z" />
    <glyph glyph-name="cedilla" unicode="&#xb8;" 
d="M131 -121l90 131h91l-75 -175z" />
    <glyph glyph-name="ordmasculine" unicode="&#xba;" horiz-adv-x="390" 
d="M196 464c24.667 0 44.167 8.66699 58.5 26s21.5 38 21.5 62v2c0 24 -7.66699 44.833 -23 62.5s-35 26.5 -59 26.5c-24.667 0 -44.167 -8.66699 -58.5 -26s-21.5 -38 -21.5 -62v-2c0 -24 7.66699 -44.833 23 -62.5s35 -26.5 59 -26.5zM51 340h288v-58h-288v58zM194 402
c-21.333 0 -41.166 4 -59.499 12s-34.166 18.667 -47.499 32s-23.833 29.166 -31.5 47.499s-11.5 37.833 -11.5 58.5v2c0 20.667 3.83301 40.167 11.5 58.5s18.334 34.333 32.001 48s29.667 24.5 48 32.5s38.5 12 60.5 12c21.333 0 41.166 -4 59.499 -12
s34.166 -18.667 47.499 -32s23.833 -29.166 31.5 -47.499s11.5 -37.833 11.5 -58.5v-2c0 -20.667 -3.83301 -40.167 -11.5 -58.5s-18.334 -34.333 -32.001 -48s-29.667 -24.5 -48 -32.5s-38.5 -12 -60.5 -12z" />
    <glyph glyph-name="guillemotright" unicode="&#xbb;" horiz-adv-x="606" 
d="M53 87l132 176l-132 177l92 48l165 -220v-8l-165 -219zM304 87l132 176l-132 177l92 48l166 -220v-8l-166 -219z" />
    <glyph glyph-name="questiondown" unicode="&#xbf;" horiz-adv-x="541" 
d="M276 -9c-35.333 0 -67.334 4.66602 -96.001 13.999s-53.167 22.833 -73.5 40.5s-36.166 39 -47.499 64s-17 53.167 -17 84.5v2c0 31.333 5.33301 58.666 16 81.999s25 43 43 59s39.167 29 63.5 39s50.5 17.333 78.5 22l10 81h81l20 -162l-5 -5
c-64 -2.66699 -110.833 -13.667 -140.5 -33s-44.5 -45.666 -44.5 -78.999v-2c0 -28 10.167 -50.833 30.5 -68.5s48.5 -26.5 84.5 -26.5c32 0 61.167 6.83301 87.5 20.5s51.5 33.167 75.5 58.5l75 -80c-29.333 -33.333 -63.333 -60.166 -102 -80.499s-85 -30.5 -139 -30.5z
M228.999 699.999h134v-137h-134v137z" />
    <glyph glyph-name="Agrave" unicode="&#xc0;" horiz-adv-x="790" 
d="M229 873l110 49l106 -164h-94zM514 278l-121 280l-120 -280h241zM338 705h114l308 -705h-130l-71 169h-331l-72 -169h-126z" />
    <glyph glyph-name="Aacute" unicode="&#xc1;" horiz-adv-x="790" 
d="M451 922l110 -49l-122 -115h-94zM514 278l-121 280l-120 -280h241zM338 705h114l308 -705h-130l-71 169h-331l-72 -169h-126z" />
    <glyph glyph-name="Acircumflex" unicode="&#xc2;" horiz-adv-x="790" 
d="M339 903h112l116 -146h-96l-77 67l-77 -67h-94zM514 278l-121 280l-120 -280h241zM338 705h114l308 -705h-130l-71 169h-331l-72 -169h-126z" />
    <glyph glyph-name="Atilde" unicode="&#xc3;" horiz-adv-x="790" 
d="M206 768c11.333 40.667 25.166 71.667 41.499 93s39.833 32 70.5 32c14 0 27.667 -2.16699 41 -6.5s26.166 -9 38.499 -14l34.5 -13.5c10.667 -4 20.667 -6 30 -6c14.667 0 25.667 4 33 12s14.666 20.667 21.999 38l67 -21c-11.333 -40 -25.166 -70.667 -41.499 -92
s-39.833 -32 -70.5 -32c-14 0 -27.667 2 -41 6s-26.166 8.5 -38.499 13.5l-35 14c-11 4.33301 -20.833 6.5 -29.5 6.5c-14.667 0 -25.667 -4 -33 -12s-14.666 -20.667 -21.999 -38zM514 278l-121 280l-120 -280h241zM338 705h114l308 -705h-130l-71 169h-331l-72 -169h-126z
" />
    <glyph glyph-name="Adieresis" unicode="&#xc4;" horiz-adv-x="790" 
d="M234 876h123v-118h-123v118zM433 876h123v-118h-123v118zM514 278l-121 280l-120 -280h241zM338 705h114l308 -705h-130l-71 169h-331l-72 -169h-126z" />
    <glyph glyph-name="Aring" unicode="&#xc5;" horiz-adv-x="790" 
d="M514 278l-121 280l-120 -280h241zM395 710c17.333 0 32 6 44 18s18 26.333 18 43v2c0 16.667 -6 31 -18 43s-26.667 18 -44 18s-32 -6 -44 -18s-18 -26.333 -18 -43v-2c0 -16.667 6 -31 18 -43s26.667 -18 44 -18zM328 684c-13.333 10 -24.498 22.5 -33.498 37.5
s-13.5 31.5 -13.5 49.5v2c0 14.667 3.16699 28.667 9.5 42s14.666 25 24.999 35s22.333 17.833 36 23.5s28.167 8.5 43.5 8.5c14.667 0 29 -2.83301 43 -8.5s26.167 -13.5 36.5 -23.5s18.666 -21.667 24.999 -35s9.5 -27.333 9.5 -42v-2c0 -18 -4.5 -34.5 -13.5 -49.5
s-20.167 -27.5 -33.5 -37.5l298 -684h-130l-71 169h-331l-72 -169h-126z" />
    <glyph glyph-name="AE" unicode="&#xc6;" horiz-adv-x="1045" 
d="M487 278v315h-20l-176 -315h196zM403 700h581v-110h-374v-182h329v-110h-329v-188h379v-110h-502v169h-255l-93 -169h-127z" />
    <glyph glyph-name="Ccedilla" unicode="&#xc7;" horiz-adv-x="738" 
d="M266 -121l78.998 115.999c-42 8 -80.5 22.5 -115.5 43.5s-65.167 47 -90.5 78s-45 66.333 -59 106s-21 81.5 -21 125.5v2c0 50 8.83301 96.833 26.5 140.5s42.5 82 74.5 115s70 59 114 78s92.667 28.5 146 28.5c32 0 61.167 -2.66699 87.5 -8s50.5 -12.833 72.5 -22.5
s42.333 -21.167 61 -34.5s36.334 -28 53.001 -44l-79 -91c-28 26 -57.667 47 -89 63s-67 24 -107 24c-33.333 0 -64.166 -6.5 -92.499 -19.5s-52.833 -30.667 -73.5 -53s-36.667 -48.5 -48 -78.5s-17 -62 -17 -96v-2c0 -34 5.66699 -66.167 17 -96.5
s27.333 -56.833 48 -79.5s45.167 -40.5 73.5 -53.5s59.166 -19.5 92.499 -19.5c42.667 0 79.334 8.16699 110.001 24.5s61 38.5 91 66.5l79 -80c-17.333 -18 -35 -34.167 -53 -48.5s-37.5 -26.833 -58.5 -37.5s-43.833 -19.167 -68.5 -25.5s-52 -10.166 -82 -11.499
l-66 -154z" />
    <glyph glyph-name="Egrave" unicode="&#xc8;" horiz-adv-x="670" 
d="M205 873l110 49l106 -164h-94zM90 700h519v-110h-396v-182h351v-110h-351v-188h401v-110h-524v700z" />
    <glyph glyph-name="Eacute" unicode="&#xc9;" horiz-adv-x="670" 
d="M383 922l110 -49l-122 -115h-94zM90 700h519v-110h-396v-182h351v-110h-351v-188h401v-110h-524v700z" />
    <glyph glyph-name="Ecircumflex" unicode="&#xca;" horiz-adv-x="670" 
d="M291 904h112l116 -146h-96l-77 67l-77 -67h-94zM90 700h519v-110h-396v-182h351v-110h-351v-188h401v-110h-524v700z" />
    <glyph glyph-name="Edieresis" unicode="&#xcb;" horiz-adv-x="670" 
d="M186 876h123v-118h-123v118zM385 876h123v-118h-123v118zM90 700h519v-110h-396v-182h351v-110h-351v-188h401v-110h-524v700z" />
    <glyph glyph-name="Igrave" unicode="&#xcc;" horiz-adv-x="317" 
d="M-6 873l110 49l106 -164h-94zM97 700h123v-700h-123v700z" />
    <glyph glyph-name="Iacute" unicode="&#xcd;" horiz-adv-x="317" 
d="M214 922l110 -49l-122 -115h-94zM97 700h123v-700h-123v700z" />
    <glyph glyph-name="Icircumflex" unicode="&#xce;" horiz-adv-x="317" 
d="M103 904h112l116 -146h-96l-77 67l-77 -67h-94zM97 700h123v-700h-123v700z" />
    <glyph glyph-name="Idieresis" unicode="&#xcf;" horiz-adv-x="317" 
d="M-2 876h123v-118h-123v118zM197 876h123v-118h-123v118zM97 700h123v-700h-123v700z" />
    <glyph glyph-name="Eth" unicode="&#xd0;" horiz-adv-x="812" 
d="M381 112c36.667 0 70 5.83301 100 17.5s55.5 28 76.5 49s37.333 46 49 75s17.5 60.5 17.5 94.5v2c0 34 -5.83301 65.667 -17.5 95s-28 54.5 -49 75.5s-46.5 37.5 -76.5 49.5s-63.333 18 -100 18h-139v-181h176v-110h-176v-185h139zM120 297l-75 -0.00195312v110h75v293
h261c54.667 0 104.834 -8.83301 150.501 -26.5s85 -42.167 118 -73.5s58.5 -68.166 76.5 -110.499s27 -88.166 27 -137.499v-2c0 -49.333 -9 -95.333 -27 -138s-43.5 -79.667 -76.5 -111s-72.333 -56 -118 -74s-95.834 -27 -150.501 -27h-261v297z" />
    <glyph glyph-name="Ntilde" unicode="&#xd1;" horiz-adv-x="790" 
d="M206 768c11.333 40.667 25.166 71.667 41.499 93s39.833 32 70.5 32c14 0 27.667 -2.16699 41 -6.5s26.166 -9 38.499 -14l34.5 -13.5c10.667 -4 20.667 -6 30 -6c14.667 0 25.667 4 33 12s14.666 20.667 21.999 38l67 -21c-11.333 -40 -25.166 -70.667 -41.499 -92
s-39.833 -32 -70.5 -32c-14 0 -27.667 2 -41 6s-26.166 8.5 -38.499 13.5l-35 14c-11 4.33301 -20.833 6.5 -29.5 6.5c-14.667 0 -25.667 -4 -33 -12s-14.666 -20.667 -21.999 -38zM90 700h114l375 -484v484h121v-700h-103l-386 498v-498h-121v700z" />
    <glyph glyph-name="Ograve" unicode="&#xd2;" horiz-adv-x="850" 
d="M252 873l110 49l106 -164h-94zM426 101c34.667 0 66.5 6.5 95.5 19.5s53.833 30.667 74.5 53s36.834 48.5 48.501 78.5s17.5 62 17.5 96v2c0 34 -5.83301 66.167 -17.5 96.5s-28 56.666 -49 78.999s-46.167 40.166 -75.5 53.499s-61.333 20 -96 20
s-66.5 -6.5 -95.5 -19.5s-53.833 -30.667 -74.5 -53s-36.834 -48.5 -48.501 -78.5s-17.5 -62 -17.5 -96v-2c0 -34 5.83301 -66.167 17.5 -96.5s28 -56.666 49 -78.999s46.167 -40.166 75.5 -53.499s61.333 -20 96 -20zM424 -12c-54 0 -103.333 9.5 -148 28.5
s-83 44.833 -115 77.5s-57 70.834 -75 114.501s-27 90.167 -27 139.5v2c0 49.333 9 95.833 27 139.5s43.333 82 76 115s71.334 59.167 116.001 78.5s94 29 148 29s103.333 -9.5 148 -28.5s83 -44.833 115 -77.5s57 -70.834 75 -114.501s27 -90.167 27 -139.5v-2
c0 -49.333 -9 -95.833 -27 -139.5s-43.333 -82 -76 -115s-71.334 -59.167 -116.001 -78.5s-94 -29 -148 -29z" />
    <glyph glyph-name="Oacute" unicode="&#xd3;" horiz-adv-x="850" 
d="M488 922l110 -49l-122 -115h-94zM426 101c34.667 0 66.5 6.5 95.5 19.5s53.833 30.667 74.5 53s36.834 48.5 48.501 78.5s17.5 62 17.5 96v2c0 34 -5.83301 66.167 -17.5 96.5s-28 56.666 -49 78.999s-46.167 40.166 -75.5 53.499s-61.333 20 -96 20
s-66.5 -6.5 -95.5 -19.5s-53.833 -30.667 -74.5 -53s-36.834 -48.5 -48.501 -78.5s-17.5 -62 -17.5 -96v-2c0 -34 5.83301 -66.167 17.5 -96.5s28 -56.666 49 -78.999s46.167 -40.166 75.5 -53.499s61.333 -20 96 -20zM424 -12c-54 0 -103.333 9.5 -148 28.5
s-83 44.833 -115 77.5s-57 70.834 -75 114.501s-27 90.167 -27 139.5v2c0 49.333 9 95.833 27 139.5s43.333 82 76 115s71.334 59.167 116.001 78.5s94 29 148 29s103.333 -9.5 148 -28.5s83 -44.833 115 -77.5s57 -70.834 75 -114.501s27 -90.167 27 -139.5v-2
c0 -49.333 -9 -95.833 -27 -139.5s-43.333 -82 -76 -115s-71.334 -59.167 -116.001 -78.5s-94 -29 -148 -29z" />
    <glyph glyph-name="Ocircumflex" unicode="&#xd4;" horiz-adv-x="850" 
d="M369 904h112l116 -146h-96l-77 67l-77 -67h-94zM426 101c34.667 0 66.5 6.5 95.5 19.5s53.833 30.667 74.5 53s36.834 48.5 48.501 78.5s17.5 62 17.5 96v2c0 34 -5.83301 66.167 -17.5 96.5s-28 56.666 -49 78.999s-46.167 40.166 -75.5 53.499s-61.333 20 -96 20
s-66.5 -6.5 -95.5 -19.5s-53.833 -30.667 -74.5 -53s-36.834 -48.5 -48.501 -78.5s-17.5 -62 -17.5 -96v-2c0 -34 5.83301 -66.167 17.5 -96.5s28 -56.666 49 -78.999s46.167 -40.166 75.5 -53.499s61.333 -20 96 -20zM424 -12c-54 0 -103.333 9.5 -148 28.5
s-83 44.833 -115 77.5s-57 70.834 -75 114.501s-27 90.167 -27 139.5v2c0 49.333 9 95.833 27 139.5s43.333 82 76 115s71.334 59.167 116.001 78.5s94 29 148 29s103.333 -9.5 148 -28.5s83 -44.833 115 -77.5s57 -70.834 75 -114.501s27 -90.167 27 -139.5v-2
c0 -49.333 -9 -95.833 -27 -139.5s-43.333 -82 -76 -115s-71.334 -59.167 -116.001 -78.5s-94 -29 -148 -29z" />
    <glyph glyph-name="Otilde" unicode="&#xd5;" horiz-adv-x="850" 
d="M236 768c11.333 40.667 25.166 71.667 41.499 93s39.833 32 70.5 32c14 0 27.667 -2.16699 41 -6.5s26.166 -9 38.499 -14l34.5 -13.5c10.667 -4 20.667 -6 30 -6c14.667 0 25.667 4 33 12s14.666 20.667 21.999 38l67 -21c-11.333 -40 -25.166 -70.667 -41.499 -92
s-39.833 -32 -70.5 -32c-14 0 -27.667 2 -41 6s-26.166 8.5 -38.499 13.5l-35 14c-11 4.33301 -20.833 6.5 -29.5 6.5c-14.667 0 -25.667 -4 -33 -12s-14.666 -20.667 -21.999 -38zM426 101c34.667 0 66.5 6.5 95.5 19.5s53.833 30.667 74.5 53s36.834 48.5 48.501 78.5
s17.5 62 17.5 96v2c0 34 -5.83301 66.167 -17.5 96.5s-28 56.666 -49 78.999s-46.167 40.166 -75.5 53.499s-61.333 20 -96 20s-66.5 -6.5 -95.5 -19.5s-53.833 -30.667 -74.5 -53s-36.834 -48.5 -48.501 -78.5s-17.5 -62 -17.5 -96v-2c0 -34 5.83301 -66.167 17.5 -96.5
s28 -56.666 49 -78.999s46.167 -40.166 75.5 -53.499s61.333 -20 96 -20zM424 -12c-54 0 -103.333 9.5 -148 28.5s-83 44.833 -115 77.5s-57 70.834 -75 114.501s-27 90.167 -27 139.5v2c0 49.333 9 95.833 27 139.5s43.333 82 76 115s71.334 59.167 116.001 78.5
s94 29 148 29s103.333 -9.5 148 -28.5s83 -44.833 115 -77.5s57 -70.834 75 -114.501s27 -90.167 27 -139.5v-2c0 -49.333 -9 -95.833 -27 -139.5s-43.333 -82 -76 -115s-71.334 -59.167 -116.001 -78.5s-94 -29 -148 -29z" />
    <glyph glyph-name="Odieresis" unicode="&#xd6;" horiz-adv-x="850" 
d="M264 876h123v-118h-123v118zM463 876h123v-118h-123v118zM426 101c34.667 0 66.5 6.5 95.5 19.5s53.833 30.667 74.5 53s36.834 48.5 48.501 78.5s17.5 62 17.5 96v2c0 34 -5.83301 66.167 -17.5 96.5s-28 56.666 -49 78.999s-46.167 40.166 -75.5 53.499
s-61.333 20 -96 20s-66.5 -6.5 -95.5 -19.5s-53.833 -30.667 -74.5 -53s-36.834 -48.5 -48.501 -78.5s-17.5 -62 -17.5 -96v-2c0 -34 5.83301 -66.167 17.5 -96.5s28 -56.666 49 -78.999s46.167 -40.166 75.5 -53.499s61.333 -20 96 -20zM424 -12
c-54 0 -103.333 9.5 -148 28.5s-83 44.833 -115 77.5s-57 70.834 -75 114.501s-27 90.167 -27 139.5v2c0 49.333 9 95.833 27 139.5s43.333 82 76 115s71.334 59.167 116.001 78.5s94 29 148 29s103.333 -9.5 148 -28.5s83 -44.833 115 -77.5s57 -70.834 75 -114.501
s27 -90.167 27 -139.5v-2c0 -49.333 -9 -95.833 -27 -139.5s-43.333 -82 -76 -115s-71.334 -59.167 -116.001 -78.5s-94 -29 -148 -29z" />
    <glyph glyph-name="Oslash" unicode="&#xd8;" horiz-adv-x="850" 
d="M426 99c34.667 0 66.666 6.49902 95.999 19.499s54.5 30.833 75.5 53.5s37.333 49.167 49 79.5s17.5 62.5 17.5 96.5v2c0 56.667 -15.333 106.334 -46 149.001l-320 -360c17.333 -12.667 36.833 -22.5 58.5 -29.5s44.834 -10.5 69.501 -10.5zM551.999 560.999
c-17.333 12.667 -36.832 22.501 -58.499 29.501s-44.834 10.5 -69.501 10.5c-34.667 0 -66.667 -6.5 -96 -19.5s-54.5 -30.833 -75.5 -53.5s-37.333 -49.167 -49 -79.5s-17.5 -62.5 -17.5 -96.5v-2c0 -56.667 15.333 -106.334 46 -149.001zM424 -12
c-39.333 0 -76 5.16699 -110 15.5s-65.333 25.166 -94 44.499l-48 -53h-121l99 111c-29.333 32 -51.833 68.833 -67.5 110.5s-23.5 85.5 -23.5 131.5v2c0 49.333 9 95.833 27 139.5s43.333 82 76 115s71.334 59.167 116.001 78.5s94 29 148 29
c39.333 0 76 -5.16699 110 -15.5s65.333 -25.166 94 -44.499l48 53h121l-99 -112c29.333 -32 51.833 -68.667 67.5 -110s23.5 -85 23.5 -131v-2c0 -49.333 -9 -95.833 -27 -139.5s-43.333 -82 -76 -115s-71.334 -59.167 -116.001 -78.5s-94 -29 -148 -29z" />
    <glyph glyph-name="Ugrave" unicode="&#xd9;" horiz-adv-x="757" 
d="M219 868l110 49l106 -164h-94zM377 -11c-45.333 0 -86.332 6.49805 -122.999 19.498s-68 32.5 -94 58.5s-46 58.167 -60 96.5s-21 82.833 -21 133.5v403h123v-398c0 -65.333 15.667 -115 47 -149s74.666 -51 129.999 -51c54.667 0 97.667 16.333 129 49
s47 81.334 47 146.001v403h123v-397c0 -52 -7.16699 -97.667 -21.5 -137s-34.5 -72.166 -60.5 -98.499s-57.5 -46 -94.5 -59s-78.5 -19.5 -124.5 -19.5z" />
    <glyph glyph-name="Uacute" unicode="&#xda;" horiz-adv-x="757" 
d="M428 917l110 -49l-122 -115h-94zM377 -11c-45.333 0 -86.332 6.49805 -122.999 19.498s-68 32.5 -94 58.5s-46 58.167 -60 96.5s-21 82.833 -21 133.5v403h123v-398c0 -65.333 15.667 -115 47 -149s74.666 -51 129.999 -51c54.667 0 97.667 16.333 129 49
s47 81.334 47 146.001v403h123v-397c0 -52 -7.16699 -97.667 -21.5 -137s-34.5 -72.166 -60.5 -98.499s-57.5 -46 -94.5 -59s-78.5 -19.5 -124.5 -19.5z" />
    <glyph glyph-name="Ucircumflex" unicode="&#xdb;" horiz-adv-x="757" 
d="M323 903h112l116 -146h-96l-77 67l-77 -67h-94zM377 -11c-45.333 0 -86.332 6.49805 -122.999 19.498s-68 32.5 -94 58.5s-46 58.167 -60 96.5s-21 82.833 -21 133.5v403h123v-398c0 -65.333 15.667 -115 47 -149s74.666 -51 129.999 -51c54.667 0 97.667 16.333 129 49
s47 81.334 47 146.001v403h123v-397c0 -52 -7.16699 -97.667 -21.5 -137s-34.5 -72.166 -60.5 -98.499s-57.5 -46 -94.5 -59s-78.5 -19.5 -124.5 -19.5z" />
    <glyph glyph-name="Udieresis" unicode="&#xdc;" horiz-adv-x="757" 
d="M218 875h123v-118h-123v118zM417 875h123v-118h-123v118zM377 -11c-45.333 0 -86.332 6.49805 -122.999 19.498s-68 32.5 -94 58.5s-46 58.167 -60 96.5s-21 82.833 -21 133.5v403h123v-398c0 -65.333 15.667 -115 47 -149s74.666 -51 129.999 -51
c54.667 0 97.667 16.333 129 49s47 81.334 47 146.001v403h123v-397c0 -52 -7.16699 -97.667 -21.5 -137s-34.5 -72.166 -60.5 -98.499s-57.5 -46 -94.5 -59s-78.5 -19.5 -124.5 -19.5z" />
    <glyph glyph-name="Yacute" unicode="&#xdd;" horiz-adv-x="716" 
d="M417 917l110 -49l-122 -115h-94zM296 276l-278 424h145l196 -310l198 310h141l-278 -421v-279h-124v276z" />
    <glyph glyph-name="Thorn" unicode="&#xde;" horiz-adv-x="673" 
d="M356 226c46.667 0 83.5 11.832 110.5 35.499s40.5 53.834 40.5 90.501v2c0 41.333 -13.667 72.5 -41 93.5s-64 31.5 -110 31.5h-143v-253h143zM90 699.999l123 0.00195312v-110h153c40.667 0 77.5 -5.5 110.5 -16.5s61 -26.833 84 -47.5s40.667 -45.334 53 -74.001
s18.5 -60.334 18.5 -95.001v-2c0 -39.333 -7.33301 -74 -22 -104s-34.667 -55 -60 -75s-55 -35 -89 -45s-70.333 -15 -109 -15h-139v-116h-123v700z" />
    <glyph glyph-name="germandbls" unicode="&#xdf;" horiz-adv-x="620" 
d="M296 91c48.667 1.33301 86.501 11.1689 113.501 29.502s40.5 44.5 40.5 78.5v2c0 32.667 -14.167 58.5 -42.5 77.5s-65.5 31.167 -111.5 36.5v82c32 15.333 58.833 34 80.5 56s32.5 49.667 32.5 83v2c0 29.333 -9.16699 52.666 -27.5 69.999s-42.833 26 -73.5 26
c-33.333 0 -60.333 -11.5 -81 -34.5s-31 -54.167 -31 -93.5v-506h-120v502c0 36 5.5 68.5 16.5 97.5s26.833 53.667 47.5 74s45.667 36 75 47s62.333 16.5 99 16.5c34 0 64.333 -4.83301 91 -14.5s49.167 -23 67.5 -40s32.333 -37 42 -60s14.5 -47.5 14.5 -73.5v-2
c0 -22.667 -3 -42.834 -9 -60.501s-14 -33.334 -24 -47.001s-21.667 -25.667 -35 -36s-27.333 -19.5 -42 -27.5c19.333 -6.66699 38.166 -15 56.499 -25s34.5 -22.167 48.5 -36.5s25.333 -31.166 34 -50.499s13 -41.333 13 -66v-2c0 -32 -6.5 -60.667 -19.5 -86
s-31.333 -46.5 -55 -63.5s-52.5 -29.667 -86.5 -38s-72 -11.833 -114 -10.5v93z" />
    <glyph glyph-name="agrave" unicode="&#xe0;" horiz-adv-x="587" 
d="M135 710l110 49l106 -164h-94zM402 221c-15.333 6 -33.501 10.9971 -54.501 14.9971s-43.167 6 -66.5 6c-38 0 -67.667 -7.33301 -89 -22s-32 -34.667 -32 -60v-2c0 -25.333 9.83301 -44.666 29.5 -57.999s43.834 -20 72.501 -20c20 0 38.5 2.66699 55.5 8
s31.833 12.833 44.5 22.5s22.5 21.334 29.5 35.001s10.5 28.834 10.5 45.501v30zM398.999 -0.00292969v65c-18 -21.333 -41 -39.333 -69 -54s-62 -22 -102 -22c-25.333 0 -49.333 3.5 -72 10.5s-42.5 17.333 -59.5 31s-30.667 30.667 -41 51s-15.5 43.833 -15.5 70.5v2
c0 29.333 5.33301 54.833 16 76.5s25.5 39.667 44.5 54s41.667 25 68 32s54.833 10.5 85.5 10.5c32 0 59.167 -2 81.5 -6s43.833 -9.33301 64.5 -16v10c0 36.667 -11.167 64.667 -33.5 84s-54.5 29 -96.5 29c-30 0 -56.667 -3 -80 -9s-47 -14 -71 -24l-33 97
c29.333 13.333 59.333 24 90 32s67.667 12 111 12c78.667 0 137 -19.5 175 -58.5s57 -93.833 57 -164.5v-313h-120z" />
    <glyph glyph-name="aacute" unicode="&#xe1;" horiz-adv-x="587" 
d="M341 759l110 -49l-122 -115h-94zM402 221c-15.333 6 -33.501 10.9971 -54.501 14.9971s-43.167 6 -66.5 6c-38 0 -67.667 -7.33301 -89 -22s-32 -34.667 -32 -60v-2c0 -25.333 9.83301 -44.666 29.5 -57.999s43.834 -20 72.501 -20c20 0 38.5 2.66699 55.5 8
s31.833 12.833 44.5 22.5s22.5 21.334 29.5 35.001s10.5 28.834 10.5 45.501v30zM398.999 -0.00292969v65c-18 -21.333 -41 -39.333 -69 -54s-62 -22 -102 -22c-25.333 0 -49.333 3.5 -72 10.5s-42.5 17.333 -59.5 31s-30.667 30.667 -41 51s-15.5 43.833 -15.5 70.5v2
c0 29.333 5.33301 54.833 16 76.5s25.5 39.667 44.5 54s41.667 25 68 32s54.833 10.5 85.5 10.5c32 0 59.167 -2 81.5 -6s43.833 -9.33301 64.5 -16v10c0 36.667 -11.167 64.667 -33.5 84s-54.5 29 -96.5 29c-30 0 -56.667 -3 -80 -9s-47 -14 -71 -24l-33 97
c29.333 13.333 59.333 24 90 32s67.667 12 111 12c78.667 0 137 -19.5 175 -58.5s57 -93.833 57 -164.5v-313h-120z" />
    <glyph glyph-name="acircumflex" unicode="&#xe2;" horiz-adv-x="587" 
d="M237 741h112l116 -146h-96l-77 67l-77 -67h-94zM402 221c-15.333 6 -33.501 10.9971 -54.501 14.9971s-43.167 6 -66.5 6c-38 0 -67.667 -7.33301 -89 -22s-32 -34.667 -32 -60v-2c0 -25.333 9.83301 -44.666 29.5 -57.999s43.834 -20 72.501 -20
c20 0 38.5 2.66699 55.5 8s31.833 12.833 44.5 22.5s22.5 21.334 29.5 35.001s10.5 28.834 10.5 45.501v30zM398.999 -0.00292969v65c-18 -21.333 -41 -39.333 -69 -54s-62 -22 -102 -22c-25.333 0 -49.333 3.5 -72 10.5s-42.5 17.333 -59.5 31s-30.667 30.667 -41 51
s-15.5 43.833 -15.5 70.5v2c0 29.333 5.33301 54.833 16 76.5s25.5 39.667 44.5 54s41.667 25 68 32s54.833 10.5 85.5 10.5c32 0 59.167 -2 81.5 -6s43.833 -9.33301 64.5 -16v10c0 36.667 -11.167 64.667 -33.5 84s-54.5 29 -96.5 29c-30 0 -56.667 -3 -80 -9
s-47 -14 -71 -24l-33 97c29.333 13.333 59.333 24 90 32s67.667 12 111 12c78.667 0 137 -19.5 175 -58.5s57 -93.833 57 -164.5v-313h-120z" />
    <glyph glyph-name="atilde" unicode="&#xe3;" horiz-adv-x="587" 
d="M105 605c11.333 40.667 25.166 71.667 41.499 93s39.833 32 70.5 32c14 0 27.667 -2.16699 41 -6.5s26.166 -9 38.499 -14l34.5 -13.5c10.667 -4 20.667 -6 30 -6c14.667 0 25.667 4 33 12s14.666 20.667 21.999 38l67 -21c-11.333 -40 -25.166 -70.667 -41.499 -92
s-39.833 -32 -70.5 -32c-14 0 -27.667 2 -41 6s-26.166 8.5 -38.499 13.5l-35 14c-11 4.33301 -20.833 6.5 -29.5 6.5c-14.667 0 -25.667 -4 -33 -12s-14.666 -20.667 -21.999 -38zM402 221c-15.333 6 -33.501 10.9971 -54.501 14.9971s-43.167 6 -66.5 6
c-38 0 -67.667 -7.33301 -89 -22s-32 -34.667 -32 -60v-2c0 -25.333 9.83301 -44.666 29.5 -57.999s43.834 -20 72.501 -20c20 0 38.5 2.66699 55.5 8s31.833 12.833 44.5 22.5s22.5 21.334 29.5 35.001s10.5 28.834 10.5 45.501v30zM398.999 -0.00292969v65
c-18 -21.333 -41 -39.333 -69 -54s-62 -22 -102 -22c-25.333 0 -49.333 3.5 -72 10.5s-42.5 17.333 -59.5 31s-30.667 30.667 -41 51s-15.5 43.833 -15.5 70.5v2c0 29.333 5.33301 54.833 16 76.5s25.5 39.667 44.5 54s41.667 25 68 32s54.833 10.5 85.5 10.5
c32 0 59.167 -2 81.5 -6s43.833 -9.33301 64.5 -16v10c0 36.667 -11.167 64.667 -33.5 84s-54.5 29 -96.5 29c-30 0 -56.667 -3 -80 -9s-47 -14 -71 -24l-33 97c29.333 13.333 59.333 24 90 32s67.667 12 111 12c78.667 0 137 -19.5 175 -58.5s57 -93.833 57 -164.5v-313
h-120z" />
    <glyph glyph-name="adieresis" unicode="&#xe4;" horiz-adv-x="587" 
d="M132 713h123v-118h-123v118zM331 713h123v-118h-123v118zM402 221c-15.333 6 -33.501 10.9971 -54.501 14.9971s-43.167 6 -66.5 6c-38 0 -67.667 -7.33301 -89 -22s-32 -34.667 -32 -60v-2c0 -25.333 9.83301 -44.666 29.5 -57.999s43.834 -20 72.501 -20
c20 0 38.5 2.66699 55.5 8s31.833 12.833 44.5 22.5s22.5 21.334 29.5 35.001s10.5 28.834 10.5 45.501v30zM398.999 -0.00292969v65c-18 -21.333 -41 -39.333 -69 -54s-62 -22 -102 -22c-25.333 0 -49.333 3.5 -72 10.5s-42.5 17.333 -59.5 31s-30.667 30.667 -41 51
s-15.5 43.833 -15.5 70.5v2c0 29.333 5.33301 54.833 16 76.5s25.5 39.667 44.5 54s41.667 25 68 32s54.833 10.5 85.5 10.5c32 0 59.167 -2 81.5 -6s43.833 -9.33301 64.5 -16v10c0 36.667 -11.167 64.667 -33.5 84s-54.5 29 -96.5 29c-30 0 -56.667 -3 -80 -9
s-47 -14 -71 -24l-33 97c29.333 13.333 59.333 24 90 32s67.667 12 111 12c78.667 0 137 -19.5 175 -58.5s57 -93.833 57 -164.5v-313h-120z" />
    <glyph glyph-name="aring" unicode="&#xe5;" horiz-adv-x="587" 
d="M293 641c17.333 0 32 6 44 18s18 26.333 18 43v2c0 16.667 -6 31 -18 43s-26.667 18 -44 18s-32 -6 -44 -18s-18 -26.333 -18 -43v-2c0 -16.667 6 -31 18 -43s26.667 -18 44 -18zM293 593c-15.333 0 -29.833 2.83301 -43.5 8.5s-25.667 13.5 -36 23.5
s-18.666 21.667 -24.999 35s-9.5 27.333 -9.5 42v2c0 14.667 3.16699 28.667 9.5 42s14.666 25 24.999 35s22.333 17.833 36 23.5s28.167 8.5 43.5 8.5c14.667 0 29 -2.83301 43 -8.5s26.167 -13.5 36.5 -23.5s18.666 -21.667 24.999 -35s9.5 -27.333 9.5 -42v-2
c0 -14.667 -3.16699 -28.667 -9.5 -42s-14.666 -25 -24.999 -35s-22.5 -17.833 -36.5 -23.5s-28.333 -8.5 -43 -8.5zM402 221c-15.333 6 -33.501 10.9971 -54.501 14.9971s-43.167 6 -66.5 6c-38 0 -67.667 -7.33301 -89 -22s-32 -34.667 -32 -60v-2
c0 -25.333 9.83301 -44.666 29.5 -57.999s43.834 -20 72.501 -20c20 0 38.5 2.66699 55.5 8s31.833 12.833 44.5 22.5s22.5 21.334 29.5 35.001s10.5 28.834 10.5 45.501v30zM398.999 -0.00292969v65c-18 -21.333 -41 -39.333 -69 -54s-62 -22 -102 -22
c-25.333 0 -49.333 3.5 -72 10.5s-42.5 17.333 -59.5 31s-30.667 30.667 -41 51s-15.5 43.833 -15.5 70.5v2c0 29.333 5.33301 54.833 16 76.5s25.5 39.667 44.5 54s41.667 25 68 32s54.833 10.5 85.5 10.5c32 0 59.167 -2 81.5 -6s43.833 -9.33301 64.5 -16v10
c0 36.667 -11.167 64.667 -33.5 84s-54.5 29 -96.5 29c-30 0 -56.667 -3 -80 -9s-47 -14 -71 -24l-33 97c29.333 13.333 59.333 24 90 32s67.667 12 111 12c78.667 0 137 -19.5 175 -58.5s57 -93.833 57 -164.5v-313h-120z" />
    <glyph glyph-name="ae" unicode="&#xe6;" horiz-adv-x="952" 
d="M260 80c29.333 0 56.8311 6 82.498 18s50.167 28.667 73.5 50c-4.66699 11.333 -8.66699 23.333 -12 36s-5.66602 26 -6.99902 40c-15.333 5.33301 -32.666 9.66602 -51.999 12.999s-41.333 5 -66 5c-37.333 0 -66.5 -7.33301 -87.5 -22s-31.5 -34.667 -31.5 -60v-2
c0 -25.333 9.66699 -44.666 29 -57.999s43 -20 71 -20zM785.998 301c-2 19.333 -6.33398 37.501 -13.001 54.501s-15.667 31.667 -27 44s-24.833 22.166 -40.5 29.499s-33.5 11 -53.5 11c-38 0 -69.167 -12.833 -93.5 -38.5s-39.166 -59.167 -44.499 -100.5h272z
M239.997 -10.999c-27.333 0 -53.1631 3.49902 -77.4961 10.499s-45.5 17.333 -63.5 31s-32.333 30.667 -43 51s-16 43.833 -16 70.5v2c0 29.333 5.33301 54.833 16 76.5s25.5 39.667 44.5 54s41.5 25 67.5 32s54 10.5 84 10.5c33.333 0 60.666 -2 81.999 -6
s42.333 -9.33301 63 -16v10c0 75.333 -43 113 -129 113c-28.667 0 -54.667 -3 -78 -9s-47 -14 -71 -24l-33 97c29.333 13.333 59.333 24 90 32s67 12 109 12c43.333 0 81 -7.5 113 -22.5s56 -36.5 72 -64.5c21.333 28 47.666 50 78.999 66s66.666 24 105.999 24
c41.333 0 77.5 -7.66699 108.5 -23s57 -36 78 -62s36.833 -56.167 47.5 -90.5s16 -70.5 16 -108.5v-16.5c0 -5.66699 -0.333008 -11.5 -1 -17.5h-388c7.33301 -43.333 24.666 -76.5 51.999 -99.5s60.333 -34.5 99 -34.5c30 0 56.167 5.33301 78.5 16
s44.166 26.334 65.499 47.001l71 -63c-25.333 -30 -55.5 -54 -90.5 -72s-77.167 -27 -126.5 -27c-41.333 0 -79.666 8 -114.999 24s-65 38 -89 66c-30 -24.667 -63.167 -45.667 -99.5 -63s-76.833 -26 -121.5 -26z" />
    <glyph glyph-name="ccedilla" unicode="&#xe7;" horiz-adv-x="571" 
d="M170 -121l80 118.003c-30 7.33301 -57.5 19.333 -82.5 36s-46.333 36.5 -64 59.5s-31.5 48.833 -41.5 77.5s-15 59 -15 91v2c0 37.333 6.83301 72.833 20.5 106.5s32.667 63 57 88s53.333 44.833 87 59.5s70.167 22 109.5 22c50 0 91.5 -8.33301 124.5 -25
s61.833 -38.667 86.5 -66l-75 -81c-18.667 19.333 -38.5 35.166 -59.5 47.499s-46.833 18.5 -77.5 18.5c-22 0 -42.333 -4.5 -61 -13.5s-34.667 -21 -48 -36s-23.833 -32.833 -31.5 -53.5s-11.5 -42.334 -11.5 -65.001v-2c0 -23.333 3.83301 -45.333 11.5 -66
s18.5 -38.667 32.5 -54s30.667 -27.5 50 -36.5s40.666 -13.5 63.999 -13.5c28.667 0 53.834 6.16699 75.501 18.5s42.167 28.166 61.5 47.499l73 -72c-24.667 -26.667 -52 -49 -82 -67s-67.667 -28.333 -113 -31l-65 -154z" />
    <glyph glyph-name="egrave" unicode="&#xe8;" horiz-adv-x="604" 
d="M139 710l110 49l106 -164h-94zM438 301c-2 19.333 -6.33496 37.501 -13.002 54.501s-15.667 31.667 -27 44s-24.833 22.166 -40.5 29.499s-33.5 11 -53.5 11c-37.333 0 -68.166 -12.833 -92.499 -38.5s-39.166 -59.167 -44.499 -100.5h271zM317.998 -11.999
c-38 0 -73.501 6.66504 -106.501 19.998s-61.667 32 -86 56s-43.5 52.833 -57.5 86.5s-21 70.834 -21 111.501v2c0 38 6.33301 73.667 19 107s30.5 62.5 53.5 87.5s50.167 44.667 81.5 59s66 21.5 104 21.5c42 0 78.833 -7.66699 110.5 -23s58 -36 79 -62
s36.833 -56.167 47.5 -90.5s16 -70.5 16 -108.5c0 -5.33301 -0.166992 -10.833 -0.5 -16.5s-0.833008 -11.5 -1.5 -17.5h-388c6.66699 -43.333 23.834 -76.5 51.501 -99.5s61.167 -34.5 100.5 -34.5c30 0 56 5.33301 78 16s43.667 26.334 65 47.001l71 -63
c-25.333 -30 -55.5 -54 -90.5 -72s-76.833 -27 -125.5 -27z" />
    <glyph glyph-name="eacute" unicode="&#xe9;" horiz-adv-x="604" 
d="M355 759l110 -49l-122 -115h-94zM438 301c-2 19.333 -6.33496 37.501 -13.002 54.501s-15.667 31.667 -27 44s-24.833 22.166 -40.5 29.499s-33.5 11 -53.5 11c-37.333 0 -68.166 -12.833 -92.499 -38.5s-39.166 -59.167 -44.499 -100.5h271zM317.998 -11.999
c-38 0 -73.501 6.66504 -106.501 19.998s-61.667 32 -86 56s-43.5 52.833 -57.5 86.5s-21 70.834 -21 111.501v2c0 38 6.33301 73.667 19 107s30.5 62.5 53.5 87.5s50.167 44.667 81.5 59s66 21.5 104 21.5c42 0 78.833 -7.66699 110.5 -23s58 -36 79 -62
s36.833 -56.167 47.5 -90.5s16 -70.5 16 -108.5c0 -5.33301 -0.166992 -10.833 -0.5 -16.5s-0.833008 -11.5 -1.5 -17.5h-388c6.66699 -43.333 23.834 -76.5 51.501 -99.5s61.167 -34.5 100.5 -34.5c30 0 56 5.33301 78 16s43.667 26.334 65 47.001l71 -63
c-25.333 -30 -55.5 -54 -90.5 -72s-76.833 -27 -125.5 -27z" />
    <glyph glyph-name="ecircumflex" unicode="&#xea;" horiz-adv-x="604" 
d="M247 741h112l116 -146h-96l-77 67l-77 -67h-94zM438 301c-2 19.333 -6.33496 37.501 -13.002 54.501s-15.667 31.667 -27 44s-24.833 22.166 -40.5 29.499s-33.5 11 -53.5 11c-37.333 0 -68.166 -12.833 -92.499 -38.5s-39.166 -59.167 -44.499 -100.5h271z
M317.998 -11.999c-38 0 -73.501 6.66504 -106.501 19.998s-61.667 32 -86 56s-43.5 52.833 -57.5 86.5s-21 70.834 -21 111.501v2c0 38 6.33301 73.667 19 107s30.5 62.5 53.5 87.5s50.167 44.667 81.5 59s66 21.5 104 21.5c42 0 78.833 -7.66699 110.5 -23s58 -36 79 -62
s36.833 -56.167 47.5 -90.5s16 -70.5 16 -108.5c0 -5.33301 -0.166992 -10.833 -0.5 -16.5s-0.833008 -11.5 -1.5 -17.5h-388c6.66699 -43.333 23.834 -76.5 51.501 -99.5s61.167 -34.5 100.5 -34.5c30 0 56 5.33301 78 16s43.667 26.334 65 47.001l71 -63
c-25.333 -30 -55.5 -54 -90.5 -72s-76.833 -27 -125.5 -27z" />
    <glyph glyph-name="edieresis" unicode="&#xeb;" horiz-adv-x="604" 
d="M142 713h123v-118h-123v118zM341 713h123v-118h-123v118zM438 301c-2 19.333 -6.33496 37.501 -13.002 54.501s-15.667 31.667 -27 44s-24.833 22.166 -40.5 29.499s-33.5 11 -53.5 11c-37.333 0 -68.166 -12.833 -92.499 -38.5s-39.166 -59.167 -44.499 -100.5h271z
M317.998 -11.999c-38 0 -73.501 6.66504 -106.501 19.998s-61.667 32 -86 56s-43.5 52.833 -57.5 86.5s-21 70.834 -21 111.501v2c0 38 6.33301 73.667 19 107s30.5 62.5 53.5 87.5s50.167 44.667 81.5 59s66 21.5 104 21.5c42 0 78.833 -7.66699 110.5 -23s58 -36 79 -62
s36.833 -56.167 47.5 -90.5s16 -70.5 16 -108.5c0 -5.33301 -0.166992 -10.833 -0.5 -16.5s-0.833008 -11.5 -1.5 -17.5h-388c6.66699 -43.333 23.834 -76.5 51.501 -99.5s61.167 -34.5 100.5 -34.5c30 0 56 5.33301 78 16s43.667 26.334 65 47.001l71 -63
c-25.333 -30 -55.5 -54 -90.5 -72s-76.833 -27 -125.5 -27z" />
    <glyph glyph-name="igrave" unicode="&#xec;" horiz-adv-x="286" 
d="M-21 710l110 49l106 -164h-94zM83 528h121v-528h-121v528z" />
    <glyph glyph-name="iacute" unicode="&#xed;" horiz-adv-x="286" 
d="M197 759l110 -49l-122 -115h-94zM83 528h121v-528h-121v528z" />
    <glyph glyph-name="icircumflex" unicode="&#xee;" horiz-adv-x="286" 
d="M87 741h112l116 -146h-96l-77 67l-77 -67h-94zM83 528h121v-528h-121v528z" />
    <glyph glyph-name="idieresis" unicode="&#xef;" horiz-adv-x="286" 
d="M-18 713h123v-118h-123v118zM181 713h123v-118h-123v118zM83 528h121v-528h-121v528z" />
    <glyph glyph-name="eth" unicode="&#xf0;" horiz-adv-x="642" 
d="M321 91c23.333 0 44.3311 4 62.998 12s34.667 19 48 33s23.666 30.333 30.999 49s11 38.667 11 60v2c0 20.667 -3.83301 40.167 -11.5 58.5s-18.334 34.166 -32.001 47.499s-30.167 24 -49.5 32s-40.666 12 -63.999 12s-44.166 -3.83301 -62.499 -11.5
s-34.166 -18.167 -47.499 -31.5s-23.5 -29.166 -30.5 -47.499s-10.5 -38.166 -10.5 -59.499v-2c0 -20.667 3.83301 -40.334 11.5 -59.001s18.334 -35 32.001 -49s30 -25.167 49 -33.5s39.833 -12.5 62.5 -12.5zM315.998 -12c-38.667 0 -74.499 6.83398 -107.499 20.501
s-61.5 32.167 -85.5 55.5s-42.667 50.833 -56 82.5s-20 65.5 -20 101.5v2c0 34.667 6 66.5 18 95.5s28.333 54 49 75s45.167 37.167 73.5 48.5s58.833 17 91.5 17c28.667 0 53.667 -3.5 75 -10.5s42.666 -17.167 63.999 -30.5l-105 143l-119 -53l-48 63l121 53l-58 79h139
l24 -35l99 43l47 -63l-102 -44l89 -129c30 -42 52.167 -81.833 66.5 -119.5s21.5 -78.834 21.5 -123.501v-2c0 -36 -6.33301 -70.333 -19 -103s-30.834 -61.167 -54.501 -85.5s-52.667 -43.833 -87 -58.5s-73.166 -22 -116.499 -22z" />
    <glyph glyph-name="ntilde" unicode="&#xf1;" horiz-adv-x="620" 
d="M125 605c11.333 40.667 25.165 71.667 41.498 93s39.833 32 70.5 32c14 0 27.667 -2.16699 41 -6.5s26.333 -9 39 -14l35 -13.5c10.667 -4 20.667 -6 30 -6c14.667 0 25.667 4 33 12s14.666 20.667 21.999 38l67 -21c-11.333 -40 -25.166 -70.667 -41.499 -92
s-39.833 -32 -70.5 -32c-14 0 -27.667 2 -41 6s-26.166 8.5 -38.499 13.5l-35 14c-11 4.33301 -21.167 6.5 -30.5 6.5c-14.667 0 -25.667 -4 -33 -12s-14.666 -20.667 -21.999 -38zM75.999 528l121 0.000976562v-82c8.66699 12.667 18.167 24.5 28.5 35.5
s22.333 20.833 36 29.5s28.667 15.5 45 20.5s34.833 7.5 55.5 7.5c60 0 106.333 -18.333 139 -55s49 -86 49 -148v-336h-121v300c0 41.333 -9.83301 73.166 -29.5 95.499s-47.5 33.5 -83.5 33.5c-35.333 0 -64 -11.5 -86 -34.5s-33 -55.167 -33 -96.5v-298h-121v528z" />
    <glyph glyph-name="ograve" unicode="&#xf2;" horiz-adv-x="657" 
d="M159 710l110 49l106 -164h-94zM329 93c24.667 0 46.833 4.50098 66.5 13.501s36.5 21.167 50.5 36.5s24.667 33.166 32 53.499s11 41.833 11 64.5v2c0 23.333 -4 45.333 -12 66s-19.167 38.667 -33.5 54s-31.333 27.5 -51 36.5s-41.5 13.5 -65.5 13.5
s-45.833 -4.5 -65.5 -13.5s-36.5 -21 -50.5 -36s-24.667 -32.833 -32 -53.5s-11 -42.334 -11 -65.001v-2c0 -23.333 4 -45.166 12 -65.499s19.167 -38.333 33.5 -54s31.333 -28 51 -37s41.167 -13.5 64.5 -13.5zM326.999 -11.999c-40 0 -77.166 7.16699 -111.499 21.5
s-64 33.833 -89 58.5s-44.5 53.667 -58.5 87s-21 68.666 -21 105.999v2c0 38 7.16699 73.667 21.5 107s34 62.5 59 87.5s54.667 44.833 89 59.5s71.833 22 112.5 22s78.167 -7.16699 112.5 -21.5s64 -34 89 -59s44.5 -54 58.5 -87s21 -68.5 21 -106.5v-2
c0 -37.333 -7.16699 -72.666 -21.5 -105.999s-34 -62.5 -59 -87.5s-54.833 -44.833 -89.5 -59.5s-72.334 -22 -113.001 -22z" />
    <glyph glyph-name="oacute" unicode="&#xf3;" horiz-adv-x="657" 
d="M387 759l110 -49l-122 -115h-94zM329 93c24.667 0 46.833 4.50098 66.5 13.501s36.5 21.167 50.5 36.5s24.667 33.166 32 53.499s11 41.833 11 64.5v2c0 23.333 -4 45.333 -12 66s-19.167 38.667 -33.5 54s-31.333 27.5 -51 36.5s-41.5 13.5 -65.5 13.5
s-45.833 -4.5 -65.5 -13.5s-36.5 -21 -50.5 -36s-24.667 -32.833 -32 -53.5s-11 -42.334 -11 -65.001v-2c0 -23.333 4 -45.166 12 -65.499s19.167 -38.333 33.5 -54s31.333 -28 51 -37s41.167 -13.5 64.5 -13.5zM326.999 -11.999c-40 0 -77.166 7.16699 -111.499 21.5
s-64 33.833 -89 58.5s-44.5 53.667 -58.5 87s-21 68.666 -21 105.999v2c0 38 7.16699 73.667 21.5 107s34 62.5 59 87.5s54.667 44.833 89 59.5s71.833 22 112.5 22s78.167 -7.16699 112.5 -21.5s64 -34 89 -59s44.5 -54 58.5 -87s21 -68.5 21 -106.5v-2
c0 -37.333 -7.16699 -72.666 -21.5 -105.999s-34 -62.5 -59 -87.5s-54.833 -44.833 -89.5 -59.5s-72.334 -22 -113.001 -22z" />
    <glyph glyph-name="ocircumflex" unicode="&#xf4;" horiz-adv-x="657" 
d="M272 741h112l116 -146h-96l-77 67l-77 -67h-94zM329 93c24.667 0 46.833 4.50098 66.5 13.501s36.5 21.167 50.5 36.5s24.667 33.166 32 53.499s11 41.833 11 64.5v2c0 23.333 -4 45.333 -12 66s-19.167 38.667 -33.5 54s-31.333 27.5 -51 36.5s-41.5 13.5 -65.5 13.5
s-45.833 -4.5 -65.5 -13.5s-36.5 -21 -50.5 -36s-24.667 -32.833 -32 -53.5s-11 -42.334 -11 -65.001v-2c0 -23.333 4 -45.166 12 -65.499s19.167 -38.333 33.5 -54s31.333 -28 51 -37s41.167 -13.5 64.5 -13.5zM326.999 -11.999c-40 0 -77.166 7.16699 -111.499 21.5
s-64 33.833 -89 58.5s-44.5 53.667 -58.5 87s-21 68.666 -21 105.999v2c0 38 7.16699 73.667 21.5 107s34 62.5 59 87.5s54.667 44.833 89 59.5s71.833 22 112.5 22s78.167 -7.16699 112.5 -21.5s64 -34 89 -59s44.5 -54 58.5 -87s21 -68.5 21 -106.5v-2
c0 -37.333 -7.16699 -72.666 -21.5 -105.999s-34 -62.5 -59 -87.5s-54.833 -44.833 -89.5 -59.5s-72.334 -22 -113.001 -22z" />
    <glyph glyph-name="otilde" unicode="&#xf5;" horiz-adv-x="657" 
d="M139 605c11.333 40.667 25.166 71.667 41.499 93s39.833 32 70.5 32c14 0 27.667 -2.16699 41 -6.5s26.166 -9 38.499 -14l34.5 -13.5c10.667 -4 20.667 -6 30 -6c14.667 0 25.667 4 33 12s14.666 20.667 21.999 38l67 -21c-11.333 -40 -25.166 -70.667 -41.499 -92
s-39.833 -32 -70.5 -32c-14 0 -27.667 2 -41 6s-26.166 8.5 -38.499 13.5l-35 14c-11 4.33301 -20.833 6.5 -29.5 6.5c-14.667 0 -25.667 -4 -33 -12s-14.666 -20.667 -21.999 -38zM329 93c24.667 0 46.833 4.50098 66.5 13.501s36.5 21.167 50.5 36.5
s24.667 33.166 32 53.499s11 41.833 11 64.5v2c0 23.333 -4 45.333 -12 66s-19.167 38.667 -33.5 54s-31.333 27.5 -51 36.5s-41.5 13.5 -65.5 13.5s-45.833 -4.5 -65.5 -13.5s-36.5 -21 -50.5 -36s-24.667 -32.833 -32 -53.5s-11 -42.334 -11 -65.001v-2
c0 -23.333 4 -45.166 12 -65.499s19.167 -38.333 33.5 -54s31.333 -28 51 -37s41.167 -13.5 64.5 -13.5zM326.999 -11.999c-40 0 -77.166 7.16699 -111.499 21.5s-64 33.833 -89 58.5s-44.5 53.667 -58.5 87s-21 68.666 -21 105.999v2c0 38 7.16699 73.667 21.5 107
s34 62.5 59 87.5s54.667 44.833 89 59.5s71.833 22 112.5 22s78.167 -7.16699 112.5 -21.5s64 -34 89 -59s44.5 -54 58.5 -87s21 -68.5 21 -106.5v-2c0 -37.333 -7.16699 -72.666 -21.5 -105.999s-34 -62.5 -59 -87.5s-54.833 -44.833 -89.5 -59.5s-72.334 -22 -113.001 -22
z" />
    <glyph glyph-name="odieresis" unicode="&#xf6;" horiz-adv-x="657" 
d="M167 713h123v-118h-123v118zM366 713h123v-118h-123v118zM329 93c24.667 0 46.833 4.50098 66.5 13.501s36.5 21.167 50.5 36.5s24.667 33.166 32 53.499s11 41.833 11 64.5v2c0 23.333 -4 45.333 -12 66s-19.167 38.667 -33.5 54s-31.333 27.5 -51 36.5
s-41.5 13.5 -65.5 13.5s-45.833 -4.5 -65.5 -13.5s-36.5 -21 -50.5 -36s-24.667 -32.833 -32 -53.5s-11 -42.334 -11 -65.001v-2c0 -23.333 4 -45.166 12 -65.499s19.167 -38.333 33.5 -54s31.333 -28 51 -37s41.167 -13.5 64.5 -13.5zM326.999 -11.999
c-40 0 -77.166 7.16699 -111.499 21.5s-64 33.833 -89 58.5s-44.5 53.667 -58.5 87s-21 68.666 -21 105.999v2c0 38 7.16699 73.667 21.5 107s34 62.5 59 87.5s54.667 44.833 89 59.5s71.833 22 112.5 22s78.167 -7.16699 112.5 -21.5s64 -34 89 -59s44.5 -54 58.5 -87
s21 -68.5 21 -106.5v-2c0 -37.333 -7.16699 -72.666 -21.5 -105.999s-34 -62.5 -59 -87.5s-54.833 -44.833 -89.5 -59.5s-72.334 -22 -113.001 -22z" />
    <glyph glyph-name="oslash" unicode="&#xf8;" horiz-adv-x="657" 
d="M329 91c24.667 0 47.167 4.50293 67.5 13.5029s37.5 21.333 51.5 37s24.833 33.667 32.5 54s11.5 42.166 11.5 65.499v2c0 17.333 -2.33301 33.666 -7 48.999s-10.667 29.666 -18 42.999l-219 -241c23.333 -15.333 50.333 -23 81 -23zM408 412.003
c-11.333 7.33301 -23.833 13.167 -37.5 17.5s-28.167 6.5 -43.5 6.5c-24.667 0 -47 -4.5 -67 -13.5s-37 -21.333 -51 -37s-24.833 -33.834 -32.5 -54.501s-11.5 -42.667 -11.5 -66v-2c0 -33.333 8.33301 -63.666 25 -90.999zM327 -11.9961
c-28 0 -54.8301 3.83105 -80.4971 11.498s-49.167 18.167 -70.5 31.5l-34 -36h-110l80 89c-20.667 24 -36.667 51 -48 81s-17 62 -17 96v2c0 38 7.16699 73.667 21.5 107s34 62.5 59 87.5s54.667 44.833 89 59.5s71.833 22 112.5 22c28.667 0 55.667 -3.83301 81 -11.5
s48.666 -18.167 69.999 -31.5l35 38h110l-29 -33l-27 -29.5l-25 -28.5c21.333 -23.333 37.666 -50.166 48.999 -80.499s17 -62.833 17 -97.5v-2c0 -37.333 -7.16699 -72.666 -21.5 -105.999s-34 -62.5 -59 -87.5s-54.833 -44.833 -89.5 -59.5s-72.334 -22 -113.001 -22z" />
    <glyph glyph-name="ugrave" unicode="&#xf9;" horiz-adv-x="620" 
d="M153 709l110 49l106 -164h-94zM258 -11c-60 0 -106.333 18.3311 -139 54.998s-49 86 -49 148v336h121v-300c0 -41.333 9.83301 -73.166 29.5 -95.499s47.5 -33.5 83.5 -33.5c35.333 0 64 11.5 86 34.5s33 55.167 33 96.5v298h121v-528h-121v82
c-17.333 -25.333 -39 -47.166 -65 -65.499s-59.333 -27.5 -100 -27.5z" />
    <glyph glyph-name="uacute" unicode="&#xfa;" horiz-adv-x="620" 
d="M355 758l110 -49l-122 -115h-94zM258 -11c-60 0 -106.333 18.3311 -139 54.998s-49 86 -49 148v336h121v-300c0 -41.333 9.83301 -73.166 29.5 -95.499s47.5 -33.5 83.5 -33.5c35.333 0 64 11.5 86 34.5s33 55.167 33 96.5v298h121v-528h-121v82
c-17.333 -25.333 -39 -47.166 -65 -65.499s-59.333 -27.5 -100 -27.5z" />
    <glyph glyph-name="ucircumflex" unicode="&#xfb;" horiz-adv-x="620" 
d="M254 741h112l116 -146h-96l-77 67l-77 -67h-94zM258 -11c-60 0 -106.333 18.3311 -139 54.998s-49 86 -49 148v336h121v-300c0 -41.333 9.83301 -73.166 29.5 -95.499s47.5 -33.5 83.5 -33.5c35.333 0 64 11.5 86 34.5s33 55.167 33 96.5v298h121v-528h-121v82
c-17.333 -25.333 -39 -47.166 -65 -65.499s-59.333 -27.5 -100 -27.5z" />
    <glyph glyph-name="udieresis" unicode="&#xfc;" horiz-adv-x="620" 
d="M149 713h123v-118h-123v118zM348 713h123v-118h-123v118zM258 -11c-60 0 -106.333 18.3311 -139 54.998s-49 86 -49 148v336h121v-300c0 -41.333 9.83301 -73.166 29.5 -95.499s47.5 -33.5 83.5 -33.5c35.333 0 64 11.5 86 34.5s33 55.167 33 96.5v298h121v-528h-121v82
c-17.333 -25.333 -39 -47.166 -65 -65.499s-59.333 -27.5 -100 -27.5z" />
    <glyph glyph-name="yacute" unicode="&#xfd;" horiz-adv-x="596" 
d="M350 758l110 -49l-122 -115h-94zM184 -163c-25.333 0 -47.832 2.83398 -67.499 8.50098s-38.834 13.5 -57.501 23.5l41 90c11.333 -6 22.833 -10.833 34.5 -14.5s23.834 -5.5 36.501 -5.5c17.333 0 31.666 4.33301 42.999 13s22 24.667 32 48l-220 528h129l150 -392
l137 392h126l-210 -543c-10.667 -27.333 -21.667 -50.333 -33 -69s-24 -33.834 -38 -45.501s-29.333 -20.167 -46 -25.5s-35.667 -8 -57 -8z" />
    <glyph glyph-name="thorn" unicode="&#xfe;" horiz-adv-x="670" 
d="M348 94c20.667 0 40.167 4 58.5 12s34.333 19.167 48 33.5s24.5 32 32.5 53s12 44.5 12 70.5v2c0 25.333 -4 48.5 -12 69.5s-18.833 38.833 -32.5 53.5s-29.667 26 -48 34s-37.833 12 -58.5 12s-40.334 -4 -59.001 -12s-35 -19.5 -49 -34.5s-25.167 -32.833 -33.5 -53.5
s-12.5 -43.667 -12.5 -69v-2c0 -25.333 4.16699 -48.5 12.5 -69.5s19.5 -38.833 33.5 -53.5s30.333 -26 49 -34s38.334 -12 59.001 -12zM76 730l121.001 -0.000976562v-290c19.333 28 43.333 51.5 72 70.5s64.334 28.5 107.001 28.5c31.333 0 61.666 -6 90.999 -18
s55.5 -29.667 78.5 -53s41.5 -52 55.5 -86s21 -73 21 -117v-2c0 -44 -6.83301 -83 -20.5 -117s-32 -62.667 -55 -86s-49.333 -41 -79 -53s-60.167 -18 -91.5 -18c-43.333 0 -79.333 9.33301 -108 28s-52.334 40.334 -71.001 65.001v-242h-121v890z" />
    <glyph glyph-name="ydieresis" unicode="&#xff;" horiz-adv-x="596" 
d="M137 713h123v-118h-123v118zM336 713h123v-118h-123v118zM184 -163c-25.333 0 -47.832 2.83398 -67.499 8.50098s-38.834 13.5 -57.501 23.5l41 90c11.333 -6 22.833 -10.833 34.5 -14.5s23.834 -5.5 36.501 -5.5c17.333 0 31.666 4.33301 42.999 13s22 24.667 32 48
l-220 528h129l150 -392l137 392h126l-210 -543c-10.667 -27.333 -21.667 -50.333 -33 -69s-24 -33.834 -38 -45.501s-29.333 -20.167 -46 -25.5s-35.667 -8 -57 -8z" />
    <glyph glyph-name="dotlessi" unicode="&#x131;" horiz-adv-x="286" 
d="M83 528h121v-528h-121v528z" />
    <glyph glyph-name="Lslash" unicode="&#x141;" horiz-adv-x="649" 
d="M120 278l-75 -22v114l75 23v307h122v-270l202 60v-114l-202 -61v-203h369v-112h-491v278z" />
    <glyph glyph-name="lslash" unicode="&#x142;" horiz-adv-x="346" 
d="M113 297l-76 -23v115l76 23v318h120v-283l76 23v-115l-76 -23v-332h-120v297z" />
    <glyph glyph-name="OE" unicode="&#x152;" horiz-adv-x="1098" 
d="M540 112v476h-109c-36.667 0 -70 -5.83301 -100 -17.5s-55.5 -28 -76.5 -49s-37.333 -46 -49 -75s-17.5 -60.5 -17.5 -94.5v-2c0 -34 5.83301 -65.667 17.5 -95s28 -54.5 49 -75.5s46.5 -37.5 76.5 -49.5s63.333 -18 100 -18h109zM431 0
c-55.333 0 -105.666 8.83496 -150.999 26.502s-84.5 42.167 -117.5 73.5s-58.5 68.166 -76.5 110.499s-27 88.166 -27 137.499v2c0 49.333 9 95.333 27 138s43.5 79.667 76.5 111s72.167 56 117.5 74s95.666 27 150.999 27h606v-110h-374v-182h329v-110h-329v-188h379v-110
h-611z" />
    <glyph glyph-name="oe" unicode="&#x153;" horiz-adv-x="1040" 
d="M326 93c24 0 45.501 4.49902 64.501 13.499s35.333 21.167 49 36.5s24.167 33.166 31.5 53.499s11 41.833 11 64.5v2c0 23.333 -4 45.333 -12 66s-19 38.667 -33 54s-30.667 27.5 -50 36.5s-40.333 13.5 -63 13.5c-24 0 -45.5 -4.5 -64.5 -13.5
s-35.333 -21.167 -49 -36.5s-24.167 -33.166 -31.5 -53.499s-11 -41.833 -11 -64.5v-2c0 -23.333 3.83301 -45.166 11.5 -65.499s18.5 -38.333 32.5 -54s30.667 -28 50 -37s40.666 -13.5 63.999 -13.5zM874.001 300.999c-2 19.333 -6.50098 37.501 -13.501 54.501
s-16 31.667 -27 44s-24.333 22.166 -40 29.499s-33.5 11 -53.5 11c-38 0 -69.167 -12.833 -93.5 -38.5s-39.166 -59.167 -44.499 -100.5h272zM321 -12c-38 0 -73.667 7.16602 -107 21.499s-62.333 33.833 -87 58.5s-44.167 53.667 -58.5 87s-21.5 68.666 -21.5 105.999v2
c0 38 7.16699 73.667 21.5 107s34 62.5 59 87.5s54.5 44.833 88.5 59.5s70.667 22 110 22c45.333 0 86.166 -10 122.499 -30s65.833 -46.333 88.5 -79c22 33.333 50.5 59.833 85.5 79.5s74.5 29.5 118.5 29.5c42 0 78.667 -7.66699 110 -23s57.5 -36 78.5 -62
s36.833 -56.167 47.5 -90.5s16 -70.5 16 -108.5c0 -5.33301 -0.166992 -10.833 -0.5 -16.5s-0.833008 -11.5 -1.5 -17.5h-388c7.33301 -43.333 24.833 -76.5 52.5 -99.5s60.834 -34.5 99.501 -34.5c30 0 56.167 5.33301 78.5 16s44.166 26.334 65.499 47.001l71 -63
c-25.333 -30 -55.666 -54 -90.999 -72s-77 -27 -125 -27c-46 0 -88 9.83301 -126 29.5s-68.667 46.834 -92 81.501c-23.333 -34 -53.5 -61 -90.5 -81s-78.5 -30 -124.5 -30z" />
    <glyph glyph-name="Scaron" unicode="&#x160;" horiz-adv-x="640" 
d="M148 904h96l77 -66l77 66h94l-116 -146h-112zM335 -10c-54 0 -105.667 9.16211 -155 27.4951s-95 46.5 -137 84.5l74 88c34 -29.333 68.333 -51.833 103 -67.5s74 -23.5 118 -23.5c38 0 68.167 8 90.5 24s33.5 37.333 33.5 64v2c0 12.667 -2.16699 23.834 -6.5 33.501
s-12.333 18.834 -24 27.501s-27.667 16.667 -48 24s-46.833 14.666 -79.5 21.999c-37.333 8.66699 -70.5 18.5 -99.5 29.5s-53.333 24.333 -73 40s-34.667 34.834 -45 57.501s-15.5 50 -15.5 82v2c0 30 6 57.5 18 82.5s28.5 46.333 49.5 64s46.167 31.5 75.5 41.5
s61.333 15 96 15c51.333 0 97.5 -7.5 138.5 -22.5s79.5 -36.833 115.5 -65.5l-66 -93c-32 23.333 -63.667 41.166 -95 53.499s-63 18.5 -95 18.5c-36 0 -64 -8 -84 -24s-30 -35.667 -30 -59v-2c0 -13.333 2.33301 -25.166 7 -35.499s13.167 -19.666 25.5 -27.999
s29.333 -16.166 51 -23.499s49.167 -15 82.5 -23c36.667 -9.33301 69.167 -19.666 97.5 -30.999s51.833 -25.166 70.5 -41.499s32.834 -35.333 42.501 -57s14.5 -46.834 14.5 -75.501v-2c0 -32.667 -6.16699 -62 -18.5 -88s-29.5 -48 -51.5 -66s-48.333 -31.667 -79 -41
s-64.334 -14 -101.001 -14z" />
    <glyph glyph-name="scaron" unicode="&#x161;" 
d="M82 741h96l77 -66l77 66h94l-116 -146h-112zM257 -10c-38 0 -76.498 6.67383 -115.498 20.0068s-75.167 33 -108.5 59l54 82c28.667 -21.333 57.834 -37.5 87.501 -48.5s58.167 -16.5 85.5 -16.5c26 0 46.167 5.16699 60.5 15.5s21.5 24.166 21.5 41.499v2
c0 10 -3.16699 18.667 -9.5 26s-15 13.666 -26 18.999s-23.667 10.333 -38 15l-44.5 14c-19.333 5.33301 -38.833 11.666 -58.5 18.999s-37.334 16.833 -53.001 28.5s-28.5 26.167 -38.5 43.5s-15 38.666 -15 63.999v2c0 24.667 4.83301 47 14.5 67s23 37 40 51
s37 24.667 60 32s47.5 11 73.5 11c33.333 0 67 -5.33301 101 -16s65 -25.334 93 -44.001l-48 -86c-25.333 15.333 -51 27.5 -77 36.5s-50 13.5 -72 13.5c-23.333 0 -41.5 -5 -54.5 -15s-19.5 -22.667 -19.5 -38v-2c0 -9.33301 3.33301 -17.5 10 -24.5s15.5 -13.333 26.5 -19
s23.667 -11 38 -16s29.166 -9.83301 44.499 -14.5c19.333 -6 38.666 -13 57.999 -21s36.833 -17.833 52.5 -29.5s28.5 -25.834 38.5 -42.501s15 -37 15 -61v-2c0 -28 -5 -52.333 -15 -73s-23.833 -37.834 -41.5 -51.501s-38.5 -24 -62.5 -31s-49.667 -10.5 -77 -10.5z" />
    <glyph glyph-name="Ydieresis" unicode="&#x178;" horiz-adv-x="716" 
d="M197 875h123v-118h-123v118zM396 875h123v-118h-123v118zM296 276l-278 424h145l196 -310l198 310h141l-278 -421v-279h-124v276z" />
    <glyph glyph-name="Zcaron" unicode="&#x17d;" horiz-adv-x="702" 
d="M183 904h96l77 -66l77 66h94l-116 -146h-112zM65 91l413 500h-400v109h560v-91l-413 -500h413v-109h-573v91z" />
    <glyph glyph-name="zcaron" unicode="&#x17e;" horiz-adv-x="560" 
d="M116 741h96l77 -66l77 66h94l-116 -146h-112zM52 83l305 346h-294v99h448v-83l-305 -346h305v-99h-459v83z" />
    <glyph glyph-name="florin" unicode="&#x192;" horiz-adv-x="527" 
d="M97 -5c-12 0 -22.333 0.333008 -31 1s-17 2 -25 4v99c14 -2 27.333 -3 40 -3c21.333 0 37.833 5.16699 49.5 15.5s19.5 27.5 23.5 51.5l35 193h-80v101h97l18 93c9.33301 50.667 27.333 89.167 54 115.5s67 39.5 121 39.5c19.333 0 36.333 -1 51 -3
s28.334 -4.66699 41.001 -8v-102c-12 3.33301 -23.833 5.83301 -35.5 7.5s-22.834 2.5 -33.501 2.5c-23.333 0 -41.333 -6 -54 -18s-21.667 -31.667 -27 -59l-12 -68h127v-101h-145l-38 -211c-9.33301 -54 -28 -92.5 -56 -115.5s-68 -34.5 -120 -34.5z" />
    <glyph glyph-name="circumflex" unicode="&#x2c6;" 
d="M194 741h112l116 -146h-96l-77 67l-77 -67h-94z" />
    <glyph glyph-name="caron" unicode="&#x2c7;" 
d="M78 741h96l77 -66l77 66h94l-116 -146h-112z" />
    <glyph glyph-name="breve" unicode="&#x2d8;" 
d="M250 593c-48 0 -87.6689 12.833 -119.002 38.5s-48.666 62.167 -51.999 109.5h83c6 -19.333 15.833 -34.666 29.5 -45.999s33.167 -17 58.5 -17s44.833 5.66699 58.5 17s23.5 26.666 29.5 45.999h83c-3.33301 -47.333 -20.666 -83.833 -51.999 -109.5
s-71 -38.5 -119 -38.5z" />
    <glyph glyph-name="dotaccent" unicode="&#x2d9;" 
d="M187 714h126v-119h-126v119z" />
    <glyph glyph-name="ring" unicode="&#x2da;" 
d="M250 641c17.333 0 32 6 44 18s18 26.333 18 43v2c0 16.667 -6 31 -18 43s-26.667 18 -44 18s-32 -6 -44 -18s-18 -26.333 -18 -43v-2c0 -16.667 6 -31 18 -43s26.667 -18 44 -18zM250 593c-15.333 0 -29.833 2.83301 -43.5 8.5s-25.667 13.5 -36 23.5
s-18.666 21.667 -24.999 35s-9.5 27.333 -9.5 42v2c0 14.667 3.16699 28.667 9.5 42s14.666 25 24.999 35s22.333 17.833 36 23.5s28.167 8.5 43.5 8.5c14.667 0 29 -2.83301 43 -8.5s26.167 -13.5 36.5 -23.5s18.666 -21.667 24.999 -35s9.5 -27.333 9.5 -42v-2
c0 -14.667 -3.16699 -28.667 -9.5 -42s-14.666 -25 -24.999 -35s-22.5 -17.833 -36.5 -23.5s-28.333 -8.5 -43 -8.5z" />
    <glyph glyph-name="ogonek" unicode="&#x2db;" 
d="M366 -164c-62 -4 -109.167 3.66797 -141.5 23.001s-48.5 47.666 -48.5 84.999c0 11.333 1.5 22.833 4.5 34.5s6.5 22.167 10.5 31.5h86c-4 -15.333 -6 -30 -6 -44c0 -22.667 7.33301 -40.167 22 -52.5s39 -19.5 73 -21.5v-56z" />
    <glyph glyph-name="tilde" unicode="&#x2dc;" 
d="M61 605c11.333 40.667 25.166 71.667 41.499 93s39.833 32 70.5 32c14 0 27.667 -2.16699 41 -6.5s26.166 -9 38.499 -14l34.5 -13.5c10.667 -4 20.667 -6 30 -6c14.667 0 25.667 4 33 12s14.666 20.667 21.999 38l67 -21c-11.333 -40 -25.166 -70.667 -41.499 -92
s-39.833 -32 -70.5 -32c-14 0 -27.667 2 -41 6s-26.166 8.5 -38.499 13.5l-35 14c-11 4.33301 -20.833 6.5 -29.5 6.5c-14.667 0 -25.667 -4 -33 -12s-14.666 -20.667 -21.999 -38z" />
    <glyph glyph-name="hungarumlaut" unicode="&#x2dd;" 
d="M160 759l106 -49l-120 -115h-90zM344 759l106 -49l-122 -115h-90z" />
    <glyph glyph-name="Omega" unicode="&#x3a9;" horiz-adv-x="752" 
d="M103 424l-66.998 -0.000976562v101h67v38c0 58.667 14.333 102.334 43 131.001c28 28 67.667 42 119 42c21.333 0 39.666 -1.33301 54.999 -4s29.666 -6 42.999 -10v-102c-12 4 -23.5 7.16699 -34.5 9.5s-23.167 3.5 -36.5 3.5c-46.667 0 -70 -26.667 -70 -80v-29h140
v-100h-138v-424h-121v424zM479.002 423.999l-67 -0.000976562v101h67v38c0 58.667 14.333 102.334 43 131.001c28 28 67.333 42 118 42c21.333 0 39.833 -1.33301 55.5 -4s30.167 -6 43.5 -10v-102c-12 4 -23.5 7.16699 -34.5 9.5s-23.167 3.5 -36.5 3.5
c-46.667 0 -70 -26.667 -70 -80v-29h140v-100h-138v-424h-121v424z" />
    <glyph glyph-name="Omega" unicode="&#x2126;" horiz-adv-x="752" 
d="M103 424l-66.998 -0.000976562v101h67v38c0 58.667 14.333 102.334 43 131.001c28 28 67.667 42 119 42c21.333 0 39.666 -1.33301 54.999 -4s29.666 -6 42.999 -10v-102c-12 4 -23.5 7.16699 -34.5 9.5s-23.167 3.5 -36.5 3.5c-46.667 0 -70 -26.667 -70 -80v-29h140
v-100h-138v-424h-121v424zM479.002 423.999l-67 -0.000976562v101h67v38c0 58.667 14.333 102.334 43 131.001c28 28 67.333 42 118 42c21.333 0 39.833 -1.33301 55.5 -4s30.167 -6 43.5 -10v-102c-12 4 -23.5 7.16699 -34.5 9.5s-23.167 3.5 -36.5 3.5
c-46.667 0 -70 -26.667 -70 -80v-29h140v-100h-138v-424h-121v424z" />
    <glyph glyph-name="pi" unicode="&#x3c0;" horiz-adv-x="830" 
d="M433 352c24 0 43 5.83203 57 17.499s21 27.167 21 46.5v2c0 20.667 -7 36.334 -21 47.001s-33 16 -57 16h-73v-129h73zM286 546.999l153.001 -0.000976562c45.333 0 81.166 -11.5 107.499 -34.5s39.5 -54.167 39.5 -93.5v-2c0 -21.333 -4.16699 -40.166 -12.5 -56.499
s-19.5 -30 -33.5 -41s-30.5 -19.167 -49.5 -24.5s-38.833 -8 -59.5 -8h-71v-120h-74v380zM414.001 23.998c46 0 88.833 8.66699 128.5 26s74 40.666 103 69.999s51.833 63.833 68.5 103.5s25 81.834 25 126.501v2c0 44.667 -8.16699 86.667 -24.5 126
s-39 73.666 -68 102.999s-63.167 52.5 -102.5 69.5s-82 25.5 -128 25.5s-88.833 -8.66699 -128.5 -26s-74 -40.666 -103 -69.999s-51.833 -63.833 -68.5 -103.5s-25 -81.834 -25 -126.501v-2c0 -44.667 8.16699 -86.667 24.5 -126s39 -73.666 68 -102.999
s63.167 -52.5 102.5 -69.5s82 -25.5 128 -25.5zM414.001 -12.002c-50.667 0 -98 9.5 -142 28.5s-82.167 44.833 -114.5 77.5s-57.833 70.834 -76.5 114.501s-28 90.167 -28 139.5v2c0 49.333 9.33301 95.833 28 139.5s44.334 82 77.001 115s71.167 59.167 115.5 78.5
s91.833 29 142.5 29s98 -9.5 142 -28.5s82.167 -44.833 114.5 -77.5s57.833 -70.834 76.5 -114.501s28 -90.167 28 -139.5v-2c0 -49.333 -9.33301 -95.833 -28 -139.5s-44.334 -82 -77.001 -115s-71.167 -59.167 -115.5 -78.5s-91.833 -29 -142.5 -29z" />
    <glyph glyph-name="endash" unicode="&#x2013;" horiz-adv-x="528" 
d="M56 364h416v-115h-416v115z" />
    <glyph glyph-name="emdash" unicode="&#x2014;" horiz-adv-x="898" 
d="M56 364h786v-115h-786v115z" />
    <glyph glyph-name="quoteleft" unicode="&#x2018;" horiz-adv-x="269" 
d="M63 539c0 56 12.999 96.667 38.999 122s64.333 40 115 44l13 -52c-61.333 -11.333 -89.666 -42.333 -84.999 -93h51v-138h-133v117z" />
    <glyph glyph-name="quoteright" unicode="&#x2019;" horiz-adv-x="269" 
d="M39 469c61.333 11.333 89.667 42.667 85 94h-51v137h133v-117c0 -56 -13 -96.667 -39 -122s-64.333 -40 -115 -44z" />
    <glyph glyph-name="quotesinglbase" unicode="&#x201a;" horiz-adv-x="269" 
d="M34 -94c61.333 12 89.667 43.333 85 94h-51v137h133v-116c0 -56 -13 -96.667 -39 -122s-64.333 -40 -115 -44z" />
    <glyph glyph-name="quotedblleft" unicode="&#x201c;" horiz-adv-x="501" 
d="M63 539c0 56 12.999 96.667 38.999 122s64.333 40 115 44l13 -52c-61.333 -11.333 -89.666 -42.333 -84.999 -93h51v-138h-133v117zM294.999 539c0 56 13 96.667 39 122s64.333 40 115 44l13 -52c-61.333 -11.333 -90 -42.333 -86 -93h52v-138h-133v117z" />
    <glyph glyph-name="quotedblright" unicode="&#x201d;" horiz-adv-x="501" 
d="M39 469c61.333 11.333 89.667 42.667 85 94h-51v137h133v-117c0 -56 -13 -96.667 -39 -122s-64.333 -40 -115 -44zM271.001 469.001c61.333 11.333 89.667 42.667 85 94h-51v137h133v-117c0 -56 -13 -96.667 -39 -122s-64.333 -40 -115 -44z" />
    <glyph glyph-name="quotedblbase" unicode="&#x201e;" horiz-adv-x="501" 
d="M34 -94c61.333 12 89.667 43.333 85 94h-51v137h133v-116c0 -56 -13 -96.667 -39 -122s-64.333 -40 -115 -44zM266.001 -94c61.333 12 89.667 43.333 85 94h-51v137h133v-116c0 -56 -13 -96.667 -39 -122s-64.333 -40 -115 -44z" />
    <glyph glyph-name="dagger" unicode="&#x2020;" horiz-adv-x="410" 
d="M178 513l-122 -9v71l121 -9l-12 134h80l-12 -134l121 9v-71l-122 9l9 -275h-72z" />
    <glyph glyph-name="daggerdbl" unicode="&#x2021;" horiz-adv-x="430" 
d="M187 134l-121 -9v71l121 -9l-8 163l8 163l-121 -9v71l121 -9l-12 134h80l-12 -134l121 9v-71l-121 9l8 -163l-8 -163l121 9v-71l-121 9l12 -134h-80z" />
    <glyph glyph-name="bullet" unicode="&#x2022;" horiz-adv-x="491" 
d="M245 211c-19.333 0 -37.502 3.66699 -54.502 11s-32 17.333 -45 30s-23.167 27.5 -30.5 44.5s-11 35.167 -11 54.5v2c0 19.333 3.83301 37.5 11.5 54.5s17.834 31.833 30.501 44.5s27.5 22.667 44.5 30s35.167 11 54.5 11s37.5 -3.66699 54.5 -11s32 -17.333 45 -30
s23.333 -27.5 31 -44.5s11.5 -35.167 11.5 -54.5v-2c0 -19.333 -3.66699 -37.5 -11 -54.5s-17.5 -31.833 -30.5 -44.5s-28.167 -22.667 -45.5 -30s-35.666 -11 -54.999 -11z" />
    <glyph glyph-name="ellipsis" unicode="&#x2026;" horiz-adv-x="792" 
d="M68 134h130v-134h-130v134zM331 134h130v-134h-130v134zM594 134h130v-134h-130v134z" />
    <glyph glyph-name="perthousand" unicode="&#x2030;" horiz-adv-x="1228" 
d="M637 69c23.333 0 41.666 9.83398 54.999 29.501s20 43.167 20 70.5v2c0 28 -7.16699 52 -21.5 72s-32.833 30 -55.5 30c-23.333 0 -41.666 -9.83301 -54.999 -29.5s-20 -43.167 -20 -70.5v-2c0 -28.667 7.16699 -52.834 21.5 -72.501s32.833 -29.5 55.5 -29.5z
M1016 69.001c23.333 0 41.666 9.83398 54.999 29.501s20 43.167 20 70.5v2c0 28 -7.16699 52 -21.5 72s-32.833 30 -55.5 30c-23.333 0 -41.666 -9.83301 -54.999 -29.5s-20 -43.167 -20 -70.5v-2c0 -28.667 7.16699 -52.834 21.5 -72.501s32.833 -29.5 55.5 -29.5z
M214 427.002c23.333 0 41.666 9.83398 54.999 29.501s20 43.167 20 70.5v2c0 28 -7.16699 52 -21.5 72s-32.833 30 -55.5 30c-23.333 0 -41.666 -9.83301 -54.999 -29.5s-20 -43.167 -20 -70.5v-2c0 -28.667 7.16699 -52.834 21.5 -72.501s32.833 -29.5 55.5 -29.5z
M635 -7.99707c-24.667 0 -47 4.66699 -67 14s-37.167 22.166 -51.5 38.499s-25.5 35.166 -33.5 56.499s-12 44 -12 68v2c0 24 4 46.833 12 68.5s19.333 40.667 34 57s32.167 29.333 52.5 39s42.833 14.5 67.5 14.5s47 -4.66699 67 -14s37.167 -22.166 51.5 -38.499
s25.5 -35.166 33.5 -56.499s12 -44 12 -68v-2c0 -24 -4 -46.833 -12 -68.5s-19.333 -40.667 -34 -57s-32.167 -29.333 -52.5 -39s-42.833 -14.5 -67.5 -14.5zM1014 -7.99707c-24.667 0 -47.166 4.66699 -67.499 14s-37.666 22.166 -51.999 38.499s-25.333 35.166 -33 56.499
s-11.5 44 -11.5 68v2c0 24 4 46.833 12 68.5s19.167 40.667 33.5 57s31.666 29.333 51.999 39s43.166 14.5 68.499 14.5c24.667 0 47 -4.66699 67 -14s37.167 -22.166 51.5 -38.499s25.5 -35.166 33.5 -56.499s12 -44 12 -68v-2c0 -24 -4 -46.833 -12 -68.5
s-19.333 -40.667 -34 -57s-32.167 -29.333 -52.5 -39s-42.833 -14.5 -67.5 -14.5zM631.001 700.003h99l-512 -700h-99zM212.001 350.003c-24.667 0 -47 4.66699 -67 14s-37.167 22.166 -51.5 38.499s-25.5 35.166 -33.5 56.499s-12 44 -12 68v2c0 24 4 46.833 12 68.5
s19.333 40.667 34 57s32.167 29.333 52.5 39s42.833 14.5 67.5 14.5s47 -4.66699 67 -14s37.167 -22.166 51.5 -38.499s25.5 -35.166 33.5 -56.499s12 -44 12 -68v-2c0 -24 -4 -46.833 -12 -68.5s-19.333 -40.667 -34 -57s-32.167 -29.333 -52.5 -39
s-42.833 -14.5 -67.5 -14.5z" />
    <glyph glyph-name="guilsinglleft" unicode="&#x2039;" horiz-adv-x="354" 
d="M44 260v8l166 220l92 -47l-132 -176l132 -177l-92 -47z" />
    <glyph glyph-name="guilsinglright" unicode="&#x203a;" horiz-adv-x="354" 
d="M53 87l132 176l-132 177l92 48l165 -220v-8l-165 -219z" />
    <glyph glyph-name="fraction" unicode="&#x2044;" horiz-adv-x="459" 
d="M397 758h110l-467 -856h-110z" />
    <glyph glyph-name="fraction" unicode="&#x2215;" horiz-adv-x="459" 
d="M397 758h110l-467 -856h-110z" />
    <glyph glyph-name="trademark" unicode="&#x2122;" horiz-adv-x="690" 
d="M121 646h-95v54h249v-54h-95v-254h-59v254zM341 700h63l93 -146l93 146h61v-308h-57v219l-95 -148h-6l-95 148v-219h-57v308z" />
    <glyph glyph-name="radical" unicode="&#x221a;" horiz-adv-x="1038" 
d="M834 730h122v-730h-122v730zM103 424l-66.998 -0.000976562v101h67v38c0 58.667 14.333 102.334 43 131.001c28 28 67.667 42 119 42c21.333 0 39.666 -1.33301 54.999 -4s29.666 -6 42.999 -10v-102c-12 4 -23.5 7.16699 -34.5 9.5s-23.167 3.5 -36.5 3.5
c-46.667 0 -70 -26.667 -70 -80v-29h140v-100h-138v-424h-121v424zM479.002 423.999l-67 -0.000976562v101h67v38c0 58.667 14.333 102.334 43 131.001c28 28 67.333 42 118 42c21.333 0 39.833 -1.33301 55.5 -4s30.167 -6 43.5 -10v-102c-12 4 -23.5 7.16699 -34.5 9.5
s-23.167 3.5 -36.5 3.5c-46.667 0 -70 -26.667 -70 -80v-29h140v-100h-138v-424h-121v424z" />
    <glyph glyph-name="approxequal" unicode="&#x2248;" horiz-adv-x="1038" 
d="M834 528h122v-528h-122v528zM103 424l-66.998 -0.000976562v101h67v38c0 58.667 14.333 102.334 43 131.001c28 28 67.667 42 119 42c21.333 0 39.666 -1.33301 54.999 -4s29.666 -6 42.999 -10v-102c-12 4 -23.5 7.16699 -34.5 9.5s-23.167 3.5 -36.5 3.5
c-46.667 0 -70 -26.667 -70 -80v-29h140v-100h-138v-424h-121v424zM479.002 423.999l-67 -0.000976562v101h67v38c0 58.667 14.333 102.334 43 131.001c28 28 67.333 42 118 42c21.333 0 39.833 -1.33301 55.5 -4s30.167 -6 43.5 -10v-102c-12 4 -23.5 7.16699 -34.5 9.5
s-23.167 3.5 -36.5 3.5c-46.667 0 -70 -26.667 -70 -80v-29h140v-100h-138v-424h-121v424zM830.002 723.998h130v-115h-130v115z" />
    <glyph glyph-name="NUL" horiz-adv-x="0" 
 />
    <glyph glyph-name="nonmarkingreturn" horiz-adv-x="300" 
 />
    <glyph glyph-name="apple" horiz-adv-x="967" 
d="M417 64c0 -4.66699 -0.832031 -8.66699 -2.49902 -12s-4.83398 -5 -9.50098 -5c-4 0 -7 1.66699 -9 5s-3 7.33301 -3 12c0 10.667 4 16 12 16s12 -5.33301 12 -16zM352.001 64h-3c-5.33301 0 -8 2.66699 -8 8c0 4 2.33301 6 7 6c2.66699 0 4 -1.33301 4 -4v-10z
M553.001 79c2.66699 0 2.66699 -3 0 -9c-3.33301 6 -3.33301 9 0 9zM393.001 182c0 -4.66699 -1.33203 -7.00098 -3.99902 -7.00098h-5c-7.33301 0 -13.5 3.33301 -18.5 10s-7.5 14 -7.5 22c0 11.333 4.66699 17 14 17h6c2 -0.666992 3.16699 -1.16699 3.5 -1.5
s1.16602 -2.16602 2.49902 -5.49902zM716.002 186.999c0 -8.66699 -3.66699 -12.999 -11 -12.999c-6 0 -11.667 3.83301 -17 11.5s-8 16.5 -8 26.5c0 9.33301 3.66699 14 11 14c6 0 11.667 -3.83301 17 -11.5s8 -16.834 8 -27.501zM275.002 200
c-5.33301 0 -9.16699 1.66797 -11.5 5.00098s-3.5 6.66602 -3.5 9.99902c0 6 2.66699 9 8 9s8.33301 -1.66699 9 -5l3 -19h-5zM381.001 384.001c-8.66699 0 -13 3.66699 -13 11s4.33301 11 13 11h11v-22h-11zM684.001 535.001c0 -8.66699 -3.66699 -12.999 -11 -12.999
c-6 0 -11.667 3.83301 -17 11.5s-8 16.5 -8 26.5c0 9.33301 3.66699 14 11 14c6 0 11.667 -3.83301 17 -11.5s8 -16.834 8 -27.501zM272.001 553.002c-2 -2.66699 -4.33203 -4 -6.99902 -4s-4 0.666992 -4 2c0 2 1.33301 3 4 3c3.33301 0 5.66602 -0.333008 6.99902 -1z
M566.002 553.002c-2 -2.66699 -4.33203 -4 -6.99902 -4s-4 0.666992 -4 2c0 2 1.33301 3 4 3c3.33301 0 5.66602 -0.333008 6.99902 -1zM171.003 548.002c-5.33301 0 -9.16699 1.66797 -11.5 5.00098s-3.5 6.66602 -3.5 9.99902c0 6 2.66699 9 8 9s8.33301 -1.66699 9 -5
l3 -19h-5zM441.002 -87.9971c0 8.66699 -3.66699 13 -11 13s-11 -4 -11 -12c0 -8.66699 3.66699 -13 11 -13s11 4 11 12zM800.002 -87.9971c0 8.66699 -3.66699 13 -11 13s-11 -4 -11 -12c0 -8.66699 3.66699 -13 11 -13s11 4 11 12zM559.002 -79.9971l-5 -12h10z
M394.002 -82.9971c0 5.33301 -3.66699 7.66699 -11 7v-13c7.33301 0 11 2 11 6zM525.002 -81.9961c0 5.33301 -3.66699 7.33301 -11 6v-12c7.33301 -0.666992 11 1.33301 11 6zM606.002 -82.9961c0 5.33301 -3.66699 7.66699 -11 7v-13c7.33301 0 11 2 11 6z
M309.002 48.0049c-1.33301 0 -2.3291 0.333984 -2.99609 1.00098c-2 0.666992 -3 2.33398 -3 5.00098v20c0 1.33301 1 2.66602 3 3.99902c0.666992 0.666992 1.66699 1 3 1v2h-18v-2c0.666992 0 1.66699 -0.333008 3 -1c2 -2 3 -3.33301 3 -4v-9
c-1.33301 0 -2.66602 0.666992 -3.99902 2l-8 8c-2 0.666992 -2.33301 1.66699 -1 3c0.666992 0.666992 1.33398 1 2.00098 1v2h-14v-2c0.666992 0 1.66699 -0.333008 3 -1s2.16602 -1.16699 2.49902 -1.5s1.16602 -0.833008 2.49902 -1.5l10 -9l-13 -13
c-0.666992 -0.666992 -1.33398 -1.16699 -2.00098 -1.5s-1.33398 -0.833008 -2.00098 -1.5c-1.33301 -0.666992 -2.33301 -1.33398 -3 -2.00098v-2h17v2c-1.33301 0 -2.33301 0.333008 -3 1s-0.333984 2 0.999023 4l8 8c1.33301 1.33301 2.66602 2 3.99902 2v-9
c0 -1.33301 -1 -3 -3 -5c-1.33301 -0.666992 -2.33301 -1 -3 -1v-2h18v2zM364.006 48.0059c-1.33301 0 -2.33105 0.332031 -2.99805 0.999023c-1.33301 1.33301 -2 2.66602 -2 3.99902v20c0 2 0.666992 3.66699 2 5c0.666992 0.666992 1.66699 1 3 1v2h-18
c-8.66699 0 -13 -3 -13 -9c0 -3.33301 3 -6.33301 9 -9l-7 -10c-1.33301 -1.33301 -2.5 -2.16602 -3.5 -2.49902s-1.83301 -0.833008 -2.5 -1.5l-2 -1v-2h11l7 12c2 2.66699 4.33301 4 7 4v-9c0 -1.33301 -0.333008 -2.16602 -1 -2.49902s-1.33398 -0.833008 -2.00098 -1.5
s-1.33398 -1 -2.00098 -1v-2h17v2zM425.008 64.0049c0 5.33301 -1.66699 9.66602 -5 12.999s-8.33301 5 -15 5s-11.667 -1.66699 -15 -5s-5 -7.66602 -5 -12.999s1.66699 -9.83301 5 -13.5s8.33301 -5.5 15 -5.5s11.667 1.83301 15 5.5s5 8.16699 5 13.5zM480.008 81.0049
l-15.002 0.00195312v-2c0.666992 0 1.33398 -0.333008 2.00098 -1s0.333984 -2 -0.999023 -4l-6 -9l-6 9c-1.33301 1.33301 -1.33301 2.66602 0 3.99902c0.666992 0.666992 1.66699 1 3 1v2h-15v-2c0.666992 0 1.66699 -0.333008 3 -1s3 -2 5 -4l8 -12v-8
c0 -1.33301 -1 -3 -3 -5c-0.666992 -0.666992 -1.33398 -1 -2.00098 -1v-2h17v2c-1.33301 0 -2.33301 0.333008 -3 1c-1.33301 1.33301 -2 3 -2 5v8l8 12c0.666992 1.33301 1.5 2.16602 2.5 2.49902s1.83301 0.833008 2.5 1.5s1.33398 1 2.00098 1v2zM568.006 81.0068
l-0.00683594 -2c0.666992 0 1.33398 -0.333008 2.00098 -1s0.666992 -2 0 -4l-9 -19l-5 10l4 8c0.666992 1.33301 1.33398 2.16602 2.00098 2.49902s1.33398 0.833008 2.00098 1.5l2 2v2h-26l1 -2c0.666992 0 1.33398 -0.333008 2.00098 -1l2 -2l3 -3l3 -5l-7 -13l-8 18
c-1.33301 2 -1.33301 3.66699 0 5c0.666992 0.666992 1.33398 1 2.00098 1v2h-13v-2c0.666992 0 1.33398 -0.333008 2.00098 -1c2 -2 3.33301 -3.66699 4 -5l13 -27h1c0.666992 -0.666992 1 -0.666992 1 0l8 16l9 -16h1l12 27c0.666992 1.33301 1.5 2.33301 2.5 3
s1.83301 1.33398 2.5 2.00098s1.33398 1 2.00098 1v2h-15zM632.999 48.0068c-1.33301 -0.666992 -2.33105 -0.666016 -2.99805 0.000976562c-1.33301 0 -2 1.66699 -2 5v21c0 2 0.666992 3.66699 2 5h3v2h-29l-2 -10l2 -1c0 1.33301 0.666992 2.66602 2 3.99902
c1.33301 2.66699 3.66602 4 6.99902 4h4c2.66699 0 4 -1 4 -3v-10h-4c-2 0 -3.66699 0.666992 -5 2c-0.666992 0.666992 -1 1.66699 -1 3h-2v-13h2c0 0.666992 0.333008 1.66699 1 3c2 2 3.66699 3 5 3h4v-11c0 -2 -1.33301 -3 -4 -3h-4
c-2.66699 0 -5.33398 1.33301 -8.00098 4c-1.33301 1.33301 -2 3 -2 5l-2 -1l2 -11h30v2zM694.001 48.0078c-1.33301 0 -2.33203 0.333008 -2.99902 1c-2 0.666992 -3 2 -3 4v20c0 1.33301 1 2.66602 3 3.99902c0.666992 0.666992 1.66699 1.33398 3 2.00098v2h-10l-24 -26
v18c0 2 1 3.66699 3 5c0.666992 0.666992 1.66699 1 3 1v2h-15v-2c0.666992 0 1.66699 -0.333008 3 -1c2 -2 3 -3.66699 3 -5v-28h3l25 28v-20c0 -0.666992 -1 -2 -3 -4c-0.666992 -0.666992 -1.33398 -1 -2.00098 -1v-2h14v2zM827.002 133.008h-685v-6h685v6z
M306.002 174.008c-1.33301 0 -2.66797 0.333984 -4.00098 1.00098s-2.5 1.33398 -3.5 2.00098s-1.83301 2.33398 -2.5 5.00098l-7 35c-0.666992 3.33301 0.333008 5.66602 3 6.99902c1.33301 0.666992 2.66602 1 3.99902 1l-1 3h-27c-13.333 0 -20 -5 -20 -15
c0 -4 1.83301 -7.33301 5.5 -10s8.16699 -4.33398 13.5 -5.00098l-9 -16c-1.33301 -2.66699 -2.83301 -4.33398 -4.5 -5.00098s-3.16699 -1.33398 -4.5 -2.00098c-2 -0.666992 -3.66699 -1 -5 -1l1 -3h19l12 23c0.666992 2 2.33398 3 5.00098 3l3 -15
c0.666992 -3.33301 -0.333008 -5.66602 -3 -6.99902c-1.33301 -0.666992 -2.66602 -1 -3.99902 -1l1 -3h29zM413 175.009c-1.33301 -0.666992 -2.66699 -0.666992 -4 0c-3.33301 1.33301 -5.33301 4.33301 -6 9l-8 31c-2 6 0.666992 9.33301 8 10l-1 3h-30
c-6 0 -11.667 -1.83301 -17 -5.5s-8 -9.16699 -8 -16.5c0 -10.667 3.66699 -19.167 11 -25.5s15.333 -9.5 24 -9.5h32zM521.999 174.009c-0.666992 0 -1.66602 0.333008 -2.99902 1c-3.33301 1.33301 -5.33301 4.33301 -6 9l-7 32c-0.666992 4 0.333008 6.66699 3 8
c1.33301 0.666992 3 1 5 1l-1 3h-14l-29 -42l-5 30c-0.666992 4 0.333008 6.66699 3 8c1.33301 0.666992 2.66602 1 3.99902 1l-1 3h-21l1 -3c1.33301 0 2.66602 -0.333008 3.99902 -1c2 -1.33301 3.66699 -4 5 -8l8 -45l3 -1l30 44l6 -30
c0.666992 -4.66699 0 -7.66699 -2 -9c-1.33301 -0.666992 -2.66602 -1 -3.99902 -1l1 -3h21zM620 228.009h-28.998l1 -3c1.33301 0 2.66602 -0.333008 3.99902 -1c3.33301 -1.33301 5.33301 -4 6 -8l5 -21c1.33301 -6.66699 1.66602 -11.667 0.999023 -15
s-4.66699 -5 -12 -5c-5.33301 0 -9.66602 2.16699 -12.999 6.5s-5.66602 9.5 -6.99902 15.5l-4 19c-0.666992 4.66699 0.333008 7.66699 3 9c1.33301 0.666992 2.66602 0.666992 3.99902 0v3h-24l1 -3c1.33301 0 3 -0.333008 5 -1c3.33301 -1.33301 5.33301 -4 6 -8l4 -19
c1.33301 -5.33301 4 -11.166 8 -17.499s10.667 -9.5 20 -9.5c11.333 0 17.666 2.66699 18.999 8s1.33301 10.666 0 15.999l-5 22c-1.33301 2.66699 -1.5 4.66699 -0.5 6s2.16699 2.33301 3.5 3s3 0.666992 5 0zM822.002 174.009
c-1.33301 0 -2.66504 0.331055 -3.99805 0.998047s-2.5 1.33398 -3.5 2.00098s-1.83301 2.33398 -2.5 5.00098l-7 35c-0.666992 3.33301 0.333008 5.66602 3 6.99902c1.33301 0.666992 2.66602 1 3.99902 1l-1 3h-45v-10v-7h4c-0.666992 2 -0.333984 4 0.999023 6
c1.33301 4.66699 5.33301 7 12 7h4c3.33301 0 5.33301 -2 6 -6l3 -16h-4c-3.33301 0 -6.33301 1.33301 -9 4c-1.33301 1.33301 -2.33301 3 -3 5h-3l5 -23h3c0 1.33301 0.333008 3 1 5c1.33301 4 3.66602 6 6.99902 6h4l3 -17
c0.666992 -3.33301 -0.333008 -5.66602 -3 -6.99902c-1.33301 -0.666992 -2.66602 -1 -3.99902 -1l1 -3h29zM203.003 217.007c-2 3.33301 -4.17188 6.33398 -6.50488 9.00098s-6.16602 4 -11.499 4c-10 0 -14.667 -7.66699 -14 -23c-2 6.66699 -4.66699 12.167 -8 16.5
s-7.66602 6.5 -12.999 6.5c-3.33301 0 -6.16602 -1 -8.49902 -3s-3.5 -5 -3.5 -9l3 -1c0 4 2.66699 6 8 6c6.66699 0 11.834 -3.5 15.501 -10.5s6.5 -14.5 8.5 -22.5c1.33301 -4.66699 1.66602 -7.83398 0.999023 -9.50098s-1.66699 -3.16699 -3 -4.5
s-2.66602 -1.66602 -3.99902 -0.999023l1 -4h28l-1 4c-1.33301 -0.666992 -2.66602 -0.666992 -3.99902 0c-3.33301 1.33301 -5.33301 4.33301 -6 9c-3.33301 11.333 -5 19.666 -5 24.999c0 8.66699 3 13 9 13c3.33301 0 5.83301 -0.833008 7.5 -2.5l4.5 -4.5z
M727.998 192.008c0 10 -3.83301 18.833 -11.5 26.5s-16.167 11.5 -25.5 11.5c-4.66699 0 -9.66699 -1.66699 -15 -5s-8 -9 -8 -17c0 -10.667 3.83301 -19.667 11.5 -27s16.167 -11 25.5 -11c4.66699 0 9.66699 1.66699 15 5s8 9 8 17zM826.998 277.008h-685v-6h685v6z
M282.998 341.008h-14v65h14v34h-141v-62h41v28h33v-20h-24v-24h24v-21h-33v28h-41v-61h141v33zM457.998 341.008h-14v65h14v34h-96c-14.667 0 -26.167 -3.83301 -34.5 -11.5s-12.5 -17.167 -12.5 -28.5s4.16699 -20.833 12.5 -28.5s19.833 -11.5 34.5 -11.5h30v-19h-15v-33
h81v33zM647.998 440.008h-81v-34h11l-15 -23l-15 23h10v34h-62v-34h12l37 -46v-19h-14v-33h81v33h-15v20l37 45h14v34zM826.998 440.008h-147v-62h36v28h11v-65h-14v-33h81v33h-14v65h11v-28h36v62zM826.998 481.008h-685v-6h685v6zM399.998 521.008
c0 1.33301 -1.00098 3.00098 -3.00098 5.00098s-5.33301 3.33301 -10 4c-2.66699 2 -4.16699 5.5 -4.5 10.5s-1 10.333 -2 16s-3 10.667 -6 15s-8.5 6.5 -16.5 6.5c-3.33301 0 -6.33301 -1.16699 -9 -3.5s-4 -4.5 -4 -6.5c0 -3.33301 1.66699 -5 5 -5c2.66699 0 4 2 4 6
s1.66699 6 5 6s5.5 -1.66699 6.5 -5s1.83301 -7.33301 2.5 -12s1.83398 -9.5 3.50098 -14.5s4.5 -9.5 8.5 -13.5c-7.33301 0 -12.166 -2.16699 -14.499 -6.5s-5.16602 -6.5 -8.49902 -6.5s-5 1.33301 -5 4c0 1.33301 0.333008 2.16602 1 2.49902s1 1.16602 1 2.49902
c0 3.33301 -1.66699 5 -5 5s-5 -2.33301 -5 -7c0 -3.33301 1.66699 -6.16602 5 -8.49902s6.66602 -3.5 9.99902 -3.5c8.66699 0 13.667 2.16699 15 6.5s4.66602 6.5 9.99902 6.5c2 -4.66699 6 -7 12 -7c2.66699 0 4 1 4 3zM201.997 522.009
c-1.33301 0 -2.66797 0.333984 -4.00098 1.00098s-2.5 1.33398 -3.5 2.00098s-1.83301 2.33398 -2.5 5.00098l-7 35c-0.666992 3.33301 0.333008 5.66602 3 6.99902c1.33301 0.666992 2.66602 1 3.99902 1l-1 3h-27c-13.333 0 -20 -5 -20 -15c0 -4 1.83301 -7.33301 5.5 -10
s8.16699 -4.33398 13.5 -5.00098l-9 -16c-1.33301 -2.66699 -2.83301 -4.33398 -4.5 -5.00098s-3.16699 -1.33398 -4.5 -2.00098c-2 -0.666992 -3.66699 -1 -5 -1l1 -3h19l12 23c0.666992 2 2.33398 3 5.00098 3l3 -15c0.666992 -3.33301 -0.333008 -5.66602 -3 -6.99902
c-1.33301 -0.666992 -2.66602 -1 -3.99902 -1l1 -3h29zM496.995 522.01c-1.33301 0 -2.66504 0.331055 -3.99805 0.998047s-2.5 1.33398 -3.5 2.00098s-1.83301 2.33398 -2.5 5.00098l-7 35c-0.666992 3.33301 0.333008 5.66602 3 6.99902
c1.33301 0.666992 2.66602 1 3.99902 1l-1 3h-45v-10v-7h4c-0.666992 2 -0.333984 4 0.999023 6c1.33301 4.66699 5.33301 7 12 7h4c3.33301 0 5.33301 -2 6 -6l3 -16h-4c-3.33301 0 -6.33301 1.33301 -9 4c-1.33301 1.33301 -2.33301 3 -3 5h-3l5 -23h3
c0 1.33301 0.333008 3 1 5c1.33301 4 3.66602 6 6.99902 6h4l3 -17c0.666992 -3.33301 -0.333008 -5.66602 -3 -6.99902c-1.33301 -0.666992 -2.66602 -1 -3.99902 -1l1 -3h29zM819.996 522.008c-1.33301 0 -2.66699 0.327148 -4 0.994141s-2.5 1.33398 -3.5 2.00098
s-1.83301 2.33398 -2.5 5.00098l-7 35c-0.666992 3.33301 0.333008 5.66602 3 6.99902c1.33301 0.666992 2.66602 1 3.99902 1l-1 3h-28l1 -3c1.33301 0 2.66602 -0.333008 3.99902 -1c2.66699 -1.33301 4.33398 -3.66602 5.00098 -6.99902l3 -15h-24l-3 15
c-0.666992 3.33301 0.333008 5.66602 3 6.99902c1.33301 0.666992 2.66602 1 3.99902 1l-1 3h-29l1 -3c1.33301 0 2.66602 -0.333008 3.99902 -1c3.33301 -1.33301 5.33301 -3.66602 6 -6.99902l7 -35c0.666992 -3.33301 -0.333008 -5.66602 -3 -6.99902
c-1.33301 -0.666992 -2.66602 -1 -3.99902 -1l1 -3h29l-1 3c-1.33301 0 -2.66602 0.333008 -3.99902 1s-2.5 1.33398 -3.5 2.00098s-1.83301 2.33398 -2.5 5.00098l-3 16h24l3 -16c0.666992 -3.33301 -0.333008 -5.66602 -3 -6.99902
c-1.33301 -0.666992 -2.66602 -1 -3.99902 -1l1 -3h29zM294.995 537.002c0 8 -4.66895 13.6689 -14.002 17.002c3.33301 2 5 5 5 9c0 3.33301 -1.66699 6.66602 -5 9.99902s-8.66602 5 -15.999 5c-8.66699 0 -13 -3.66699 -13 -11c0 -4 1.66699 -6 5 -6c2.66699 0 4 1 4 3
s-0.5 3.16699 -1.5 3.5s-1.5 1.16602 -1.5 2.49902c0 3.33301 2.33301 5 7 5c6.66699 0 10 -4 10 -12c0 -2.66699 -0.666992 -4.66699 -2 -6c-10.667 1.33301 -16 -0.666992 -16 -6c0 -4 2.66699 -6 8 -6c4 0 7.66699 1.66699 11 5c4 -3.33301 6 -8.33301 6 -15
c0 -9.33301 -4 -14 -12 -14s-12 3 -12 9c0 2 1 3 3 3c0.666992 0 1.33398 -0.333008 2.00098 -1s1.66699 -1 3 -1c2.66699 0 4 1.66699 4 5s-2.33301 5 -7 5c-6 0 -9 -3.33301 -9 -10c0 -8.66699 5.33301 -13 16 -13c8.66699 0 15 1.83301 19 5.5s6 8.16699 6 13.5z
M588.993 537.004c0 8 -4.66895 13.6689 -14.002 17.002c3.33301 2 5 5 5 9c0 3.33301 -1.66699 6.66602 -5 9.99902s-8.66602 5 -15.999 5c-8.66699 0 -13 -3.66699 -13 -11c0 -4 1.66699 -6 5 -6c2.66699 0 4 1 4 3s-0.5 3.16699 -1.5 3.5s-1.5 1.16602 -1.5 2.49902
c0 3.33301 2.33301 5 7 5c6.66699 0 10 -4 10 -12c0 -2.66699 -0.666992 -4.66699 -2 -6c-10.667 1.33301 -16 -0.666992 -16 -6c0 -4 2.66699 -6 8 -6c4 0 7.66699 1.66699 11 5c4 -3.33301 6 -8.33301 6 -15c0 -9.33301 -4 -14 -12 -14s-12 3 -12 9c0 2 1 3 3 3
c0.666992 0 1.33398 -0.333008 2.00098 -1s1.66699 -1 3 -1c2.66699 0 4 1.66699 4 5s-2.33301 5 -7 5c-6 0 -9 -3.33301 -9 -10c0 -8.66699 5.33301 -13 16 -13c8.66699 0 15 1.83301 19 5.5s6 8.16699 6 13.5zM695.991 540.006c0 10 -3.83301 18.833 -11.5 26.5
s-16.167 11.5 -25.5 11.5c-4.66699 0 -9.66699 -1.66699 -15 -5s-8 -9 -8 -17c0 -10.667 3.83301 -19.667 11.5 -27s16.167 -11 25.5 -11c4.66699 0 9.66699 1.66699 15 5s8 9 8 17zM826.991 624.006h-685v-6h685v6zM438.991 664.006
c-1.33301 -0.666992 -2.33105 -0.666016 -2.99805 0.000976562c-1.33301 0 -2 1.66699 -2 5v21c0 2 0.666992 3.66699 2 5h3v2h-29l-2 -10l2 -1c0 1.33301 0.666992 2.66602 2 3.99902c1.33301 2.66699 3.66602 4 6.99902 4h4c2.66699 0 4 -1 4 -3v-10h-4
c-2 0 -3.66699 0.666992 -5 2c-0.666992 0.666992 -1 1.66699 -1 3h-2v-13h2c0 0.666992 0.333008 1.66699 1 3c2 2 3.66699 3 5 3h4v-11c0 -2 -1.33301 -3 -4 -3h-4c-2.66699 0 -5.33398 1.33301 -8.00098 4c-1.33301 1.33301 -2 3 -2 5l-2 -1l2 -11h30v2zM503.993 664.007
c-1.33301 -0.666992 -2.33008 -0.666992 -2.99707 0c-2 0 -3 1.66699 -3 5v21c0 2 1 3.66699 3 5h3v2h-18v-1v-1h2c2 -2 3 -3.66699 3 -5v-9h-17v9c0 2 0.666992 3.66699 2 5h3v1v1h-17v-2h2c2 -2 3 -3.66699 3 -5v-21c0 -1.33301 -0.333008 -2.16602 -1 -2.49902
s-1.33398 -0.833008 -2.00098 -1.5s-1.33398 -1 -2.00098 -1v-2h17v2c-1.33301 0 -2.33301 0.333008 -3 1c-1.33301 1.33301 -2 2.66602 -2 3.99902v10h17v-10c0 -3.33301 -1 -5 -3 -5c-0.666992 -0.666992 -1.33398 -0.666992 -2.00098 0v-2h18v2zM558.996 686.007
l0.00195312 4c0 1.33301 -0.166992 2.66602 -0.5 3.99902s-0.5 2.66602 -0.5 3.99902c-1.33301 -0.666992 -7 -1 -17 -1s-16 0.333008 -18 1c0 -1.33301 -0.166992 -2.66602 -0.5 -3.99902s-0.5 -2.66602 -0.5 -3.99902v-4h2c0.666992 1.33301 1.66699 2.66602 3 3.99902
c3.33301 3.33301 5.66602 5 6.99902 5c2 0 3 -1 3 -3v-23c0 -3.33301 -1 -5 -3 -5c-0.666992 -0.666992 -1.33398 -0.666992 -2.00098 0v-2h17v2c-1.33301 -0.666992 -2.33301 -0.666992 -3 0c-1.33301 0 -2 1.66699 -2 5v23c0 2 1 3 3 3s4.66699 -1.66699 8 -5
c1.33301 -1.33301 2 -2.66602 2 -3.99902h2zM283.998 -100.993c0 -2.66699 -1.33301 -4 -4 -4s-4 1.33301 -4 4s1.33301 4 4 4s4 -1.33301 4 -4zM715.998 -100.993c0 -2.66699 -1.33301 -4 -4 -4s-4 1.33301 -4 4s1.33301 4 4 4s4 -1.33301 4 -4zM142.998 -104.993h-1
l-11 23l-10 -23h-1l-12 34l6 1l7 -23l10 23h1l10 -23l7 22h6zM198.998 -104.993h-1l-11 23l-10 -23h-1l-12 34l6 1l7 -23l10 23h1l10 -23l7 22h6zM254.998 -104.993h-1l-11 23l-10 -23h-1l-12 34l6 1l7 -23l10 23h1l10 -23l7 22h6zM322.998 -75.9932h-12v-28h-6v28h-12v5h30
v-5zM350.998 -89.9932v-14h-6v14l-14 19l6 1l11 -15l9 14h7zM399.998 -81.9932c0 -8 -5.66699 -11.999 -17 -11.999v-10h-6v33c9.33301 1.33301 15.5 0.666016 18.5 -2.00098s4.5 -5.66699 4.5 -9zM446.998 -86.9922c0 -5.33301 -1.49902 -9.66602 -4.49902 -12.999
s-7.16699 -5 -12.5 -5s-9.5 1.66699 -12.5 5s-4.5 7.33301 -4.5 12c0 5.33301 1.66699 9.66602 5 12.999s7.66602 5 12.999 5c4.66699 0 8.5 -1.66699 11.5 -5s4.5 -7.33301 4.5 -12zM490.999 -100.992c-4 -2.66699 -8.33301 -3.99902 -13 -3.99902
c-5.33301 0 -9.66602 1.5 -12.999 4.5s-5 7.16699 -5 12.5s1.83301 9.66602 5.5 12.999s8.16699 5 13.5 5c4 0 8 -1.33301 12 -4l-2 -5c-2.66699 2.66699 -6.33398 4 -11.001 4c-8 0 -12 -4.33301 -12 -13c0 -8 4.33301 -12 13 -12c1.33301 0 3.33301 0.666992 6 2v7h-9v5
h15v-15zM526.999 -103.991l-8 10.999h-5v-11h-6v33c9.33301 1.33301 15.5 0.833008 18.5 -1.5s4.5 -5.16602 4.5 -8.49902c0 -4.66699 -2.33301 -8 -7 -10l10 -13h-7zM569.999 -103.992l-4 8h-14l-3 -8h-6l15 34h2l16 -34h-6zM611.999 -81.9922
c0 -8 -5.66699 -11.999 -17 -11.999v-10h-6v33c9.33301 1.33301 15.5 0.666016 18.5 -2.00098s4.5 -5.66699 4.5 -9zM649.999 -103.991v15h-16v-15h-6v33h6v-13h16v13h6v-33h-6zM688.999 -89.9912v-14h-6v14l-14 19l6 1l11 -15l9 14h7zM756.999 -101.991
c-2 -2 -5.33301 -3 -10 -3c-12 0 -18 5.66699 -18 17c0 5.33301 1.66699 9.66602 5 12.999s7.66602 5 12.999 5c4 0 7.66699 -1 11 -3l-2 -5c-2 2 -5 3 -9 3c-3.33301 0 -6.16602 -1.16699 -8.49902 -3.5s-3.5 -5.16602 -3.5 -8.49902c0 -8.66699 4.33301 -13 13 -13
c2.66699 0 6 1.33301 10 4zM805.999 -86.9912c0 -5.33301 -1.49902 -9.66602 -4.49902 -12.999s-7.16699 -5 -12.5 -5s-9.5 1.66699 -12.5 5s-4.5 7.33301 -4.5 12c0 5.33301 1.66699 9.66602 5 12.999s7.66602 5 12.999 5c4.66699 0 8.5 -1.66699 11.5 -5
s4.5 -7.33301 4.5 -12zM853 -103.991l-3 20l-10 -21h-2l-10 21l-3 -20h-6l6 34h1l13 -26l13 26h1l6 -34h-6zM101 0.00878906v750h767v-750h-767z" />
  </font>
</defs>
</svg>
